Тёмный мир: Равновесие (2013) BDRip 1080р от SuperMin | GER Transfer

 
 Статистика раздачи 
Размер: 6.82 ГБ   |  Зарегистрирован: 01 апр 2018, 13:43   |   .torrent скачан: 0 раз
Сидеров: 1  [ 0 байт/сек ]     Личеров: 0  [ 0 байт/сек ]  
  

Тёмный мир: Равновесие (2013) BDRip 1080р от SuperMin | GER Transfer

Сообщение graf_t » 01 апр 2018, 13:43

Информация о фильме
Название: Тёмный мир: Равновесие
Год выхода: 2013
Жанр: Фэнтези, приключения
Режиссер: Олег Асадулин
В ролях: Мария Пирогова, Павел Прилучный, Макар Запорожский, Валерия Ланская, Евгения Брик (Хиривская), Александр Ратников, Владислав Абашин, Пётр Семак, Алиса Хазанова, Дарья Храмцова, Валерий Опёнкин

О фильме:
Два мира живут параллельной жизнью – мир людей и Темный мир. Однако в то время как люди продолжают жить в обычном ритме, тени начинают свободно проникать в наш мир. Эти существа, голодные и замерзшие, питаются жизненной силой человечества. Забирая его радость, любовь, тепло и положительные эмоции, они все больше набираются сил, так что Портал, разделяющий миры, эта тонкая грань, уже скоро может быть разрушена.Небольшая команда посвященных пытается дать отпор теням, но силы героев картины «Тёмный мир: Равновесие» слишком малы. Чтобы выжить, люди должны бороться сами. Лишь сумев обратиться к своим внутренним возможностям, к своим самым лучшим чувствам и эмоциям, они смогут спастись.


Страна: Россия
Студия: Централ Партнершип
Продолжительность: 01:35:22
Перевод: не требуется

Файл
Кодек: H.264
Качество: BDRip 1080р от SuperMin
Видео: 1912x1072 (16:9), 9599 kbps, 23.976 fps
Звук: Русский (AC-3, 6ch, 640 kbps)
x264 [info]: frame I:1564 Avg QP:16.65 size:210687
x264 [info]: frame P:34384 Avg QP:18.07 size: 90838
x264 [info]: frame B:101235 Avg QP:20.98 size: 33708
x264 [info]: consecutive B-frames: 3.6% 4.1% 11.2% 33.5% 16.8% 28.3% 1.8% 0.3% 0.3%
encoded 137183 frames, 4.01 fps, 9598.98 kb/s

General
Unique ID : 172712250305942600933774881275873886718 (0x81EF2B61E7D9712C888D5736640481FE)
Complete name : E:ФИЛЬМЫТёмный мир. Равновесие.mkv
Format : Matroska
Format version : Version 4 / Version 2
File size : 6.82 GiB
Duration : 1 h 35 min
Overall bit rate : 10.2 Mb/s
Movie name : Тёмный мир: Равновесие (2013) - #LORDKILL#
Encoded date : UTC 2018-04-01 03:12:33
Writing application : mkvmerge v9.5.0 ('Quiet Fire') 64bit
Writing library : libebml v1.3.4 + libmatroska v1.4.5

Video
ID : 1
Format : AVC
Format/Info : Advanced Video Codec
Format profile : High@L4.1
Format settings, CABAC : Yes
Format settings, ReFrames : 4 frames
Codec ID : V_MPEG4/ISO/AVC
Duration : 1 h 35 min
Bit rate : 9 599 kb/s
Width : 1 912 pixels
Height : 1 072 pixels
Display aspect ratio : 16:9
Frame rate mode : Constant
Frame rate : 23.976 (24000/1001) FPS
Color space : YUV
Chroma subsampling : 4:2:0
Bit depth : 8 bits
Scan type : Progressive
Bits/(Pixel*Frame) : 0.195
Stream size : 6.39 GiB (94%)
Writing library : x264 core 148 r2638 7599210
Encoding settings : cabac=1 / ref=4 / deblock=1:-3:-3 / analyse=0x3:0x113 / me=umh / subme=11 / psy=1 / psy_rd=1.10:0.15 / mixed_ref=1 / me_range=64 / chroma_me=1 / trellis=2 / 8x8dct=1 / cqm=0 / deadzone=21,11 / fast_pskip=0 / chroma_qp_offset=-3 / threads=12 / lookahead_threads=2 / sliced_threads=0 / nr=0 / decimate=1 / interlaced=0 / bluray_compat=0 / constrained_intra=0 / bframes=8 / b_pyramid=2 / b_adapt=2 / b_bias=0 / direct=3 / weightb=1 / open_gop=0 / weightp=2 / keyint=240 / keyint_min=23 / scenecut=40 / intra_refresh=0 / rc_lookahead=60 / rc=crf / mbtree=0 / crf=19.0 / qcomp=0.70 / qpmin=0 / qpmax=69 / qpstep=4 / vbv_maxrate=62500 / vbv_bufsize=78125 / crf_max=0.0 / nal_hrd=none / filler=0 / ip_ratio=1.40 / pb_ratio=1.30 / aq=1:0.80
Default : Yes
Forced : No

Audio
ID : 2
Format : AC-3
Format/Info : Audio Coding 3
Mode extension : CM (complete main)
Format settings, Endianness : Big
Codec ID : A_AC3
Duration : 1 h 35 min
Bit rate mode : Constant
Bit rate : 640 kb/s
Channel(s) : 6 channels
Channel positions : Front: L C R, Side: L R, LFE
Sampling rate : 48.0 kHz
Frame rate : 31.250 FPS (1536 spf)
Bit depth : 16 bits
Compression mode : Lossy
Stream size : 437 MiB (6%)
Language : Russian
Default : Yes
Forced : No

Menu
00:00:00.000 : de:Chapter 01
00:03:27.999 : de:Chapter 02
00:11:32.024 : de:Chapter 03
00:20:23.013 : de:Chapter 04
00:29:27.932 : de:Chapter 05
00:38:56.959 : de:Chapter 06
00:44:51.980 : de:Chapter 07
00:53:11.938 : de:Chapter 08
00:59:53.965 : de:Chapter 09
01:09:16.902 : de:Chapter 10
01:20:12.933 : de:Chapter 11
01:31:19.932 : de:Chapter 12
01:35:21.674 : de:Chapter 13
 
Не забывайте говорить Спасибо. Не уходите с раздачи!   
Торрент: Зарегистрирован [01 апр 2018, 13:43] Для скачивания .torrent
необходима регистрация
Или скачать с помощью
MediaGet
Статус:
Проверен
 
.torrent скачан: 0 раз
Хэш: d14b14a52162c64aa761e0120370fa36e01da519
Размер: 6.82 ГБ (7 324 408 944 байт)
Стать Автором раздачи
 
 
Раздал: 100 ГБ
Скачал: 0 байт
Ратио: Seed.
Сообщения: 52074
Зарегистрирован: 31 мар 2015, 18:04


  • Похожие торренты
    Ответы
    Просмотры
    Последнее сообщение

Вернуться в Отечественные фильмы 2011 - 2015 года

Ресурс не предоставляет электронные версии произведений, а занимается лишь коллекционированием и каталогизацией ссылок, присылаемых и публикуемых на форуме нашими читателями. Если вы являетесь правообладателем какого-либо представленного материала и не желаете чтобы ссылка на него находилась в нашем каталоге, свяжитесь с нами и мы незамедлительно удалим её. Файлы для обмена на трекере предоставлены пользователями сайта, и администрация не несёт ответственности за их содержание. Просьба не заливать файлы, защищенные авторскими правами, а также файлы нелегального содержания!
cron