2018 ITTF World Tour Platinum German Open / Личные финалы / Eurosport HD [25.03.2018, Настольный теннис, HDTV/1080i, TS/H.264, RU/EN]

 
 Статистика раздачи 
Размер: 2.69 ГБ   |  Зарегистрирован: 28 мар 2018, 21:02   |   .torrent скачан: 0 раз
Сидеров: 1  [ 0 байт/сек ]     Личеров: 0  [ 0 байт/сек ]  
  

2018 ITTF World Tour Platinum German Open / Личные финалы / Eurosport HD [25.03.2018, Настольный теннис, HDTV/1080i, TS/H.264, RU/EN]

Сообщение Nakazhu » 28 мар 2018, 21:02

2018 ITTF World Tour Platinum German Open
Год выпуска: 25.03.2018
Вид спорта: Настольный теннис
Комментарий: Профессиональный
Язык комментариев: Русский (Анастасия Кольцова) / Английский
Описание: 2018 ITTF World Tour Platinum German Open Личные финалы
Доп. информация: Оба матча сокращены
Автор рипа: Настольный Теннисист
Качество: HDTV
Формат: TS
Видео кодек: AVC
Аудио кодек: MP2
Видео: MPEG4 Video (H264) 1920x1080 (16:9) 25fps 7652kbps
Аудио: MPEG Audio 48000Hz stereo 192kbps
Код: Выделить всё
General
ID                                       : 1 (0x1)
Complete name                            : F:\Table Tennis\2018 ITTF WORLD TOUR GERMAN OPEN EUROSPORT HD\01 MSF.ts
Format                                   : MPEG-TS
File size                                : 1.39 GiB
Duration                                 : 23 min 30 s
Overall bit rate mode                    : Variable
Overall bit rate                         : 8 457 kb/s
Video
ID                                       : 301 (0x12D)
Menu ID                                  : 26001 (0x6591)
Format                                   : AVC
Format/Info                              : Advanced Video Codec
Format profile                           : High@L4
Format settings, CABAC                   : Yes
Format settings, RefFrames               : 4 frames
Codec ID                                 : 27
Duration                                 : 23 min 30 s
Bit rate                                 : 7 652 kb/s
Width                                    : 1 920 pixels
Height                                   : 1 080 pixels
Display aspect ratio                     : 16:9
Frame rate                               : 25.000 FPS
Standard                                 : Component
Color space                              : YUV
Chroma subsampling                       : 4:2:0
Bit depth                                : 8 bits
Scan type                                : Interlaced
Scan type, store method                  : Separated fields
Scan order                               : Top Field First
Bits/(Pixel*Frame)                       : 0.148
Stream size                              : 1.26 GiB (90%)
Color range                              : Limited
Color primaries                          : BT.709
Transfer characteristics                 : BT.709
Matrix coefficients                      : BT.709
Audio #1
ID                                       : 401 (0x191)
Menu ID                                  : 26001 (0x6591)
Format                                   : MPEG Audio
Format version                           : Version 1
Format profile                           : Layer 2
Codec ID                                 : 3
Duration                                 : 23 min 30 s
Bit rate mode                            : Constant
Bit rate                                 : 192 kb/s
Channel(s)                               : 2 channels
Sampling rate                            : 48.0 kHz
Compression mode                         : Lossy
Delay relative to video                  : -40 ms
Stream size                              : 32.3 MiB (2%)
Language                                 : Russian
Audio #2
ID                                       : 402 (0x192)
Menu ID                                  : 26001 (0x6591)
Format                                   : MPEG Audio
Format version                           : Version 1
Format profile                           : Layer 2
Codec ID                                 : 3
Duration                                 : 23 min 30 s
Bit rate mode                            : Constant
Bit rate                                 : 192 kb/s
Channel(s)                               : 2 channels
Sampling rate                            : 48.0 kHz
Compression mode                         : Lossy
Delay relative to video                  : -40 ms
Stream size                              : 32.3 MiB (2%)
Language                                 : English
ЖЕНЩИНЫ. ФИНАЛ

SUH Hyowon - ISHIKAWA Kasumi
МУЖЧИНЫ. ФИНАЛ
XU Xin - MA Long
Общая продолжительность: 00:45:34
ЖЕНЩИНЫ. ФИНАЛ
SUH Hyowon - ISHIKAWA Kasumi - 00:22:04
МУЖЧИНЫ. ФИНАЛ
XU Xin - MA Long - 00:23:30
ЖЕНЩИНЫ. ФИНАЛ

SUH Hyowon - ISHIKAWA Kasumi
(1-4) 11:9, 12:10, 6:11, 7:11, 6:11
МУЖЧИНЫ. ФИНАЛ
XU Xin - MA Long
(1-4) 9:11, 11:9, 9:11, 9:11, 6:11
 
Не забывайте говорить Спасибо. Не уходите с раздачи!   
Торрент: Зарегистрирован [28 мар 2018, 21:02] Скачать торрент
Скачать торрент
[ Размер 13.97 КБ / Просмотров 5 ]
Статус:
Проверен
 
.torrent скачан: 0 раз
Хэш: e49d1c9dabd172c1f86df3a01af493dfb55e2d11
Размер: 2.69 ГБ (2 884 167 032 байт)
Стать Автором раздачи
 
 
Раздал: 0 байт
Скачал: 0 байт
Ратио: Inf.
Сообщения: 487468
Зарегистрирован: 17 апр 2014, 13:57


  • Похожие торренты
    Ответы
    Просмотры
    Последнее сообщение

Вернуться в Бадминтон/Настольный теннис

Ресурс не предоставляет электронные версии произведений, а занимается лишь коллекционированием и каталогизацией ссылок, присылаемых и публикуемых на форуме нашими читателями. Если вы являетесь правообладателем какого-либо представленного материала и не желаете чтобы ссылка на него находилась в нашем каталоге, свяжитесь с нами и мы незамедлительно удалим её. Файлы для обмена на трекере предоставлены пользователями сайта, и администрация не несёт ответственности за их содержание. Просьба не заливать файлы, защищенные авторскими правами, а также файлы нелегального содержания!
cron