(Atmospheric Black Metal) [CD] Drudkh - Їм часто сниться капіж (They Often See Dreams About the Spring) - 2018, FLAC (image+.cue), lossless

 
 Статистика раздачи 
Размер: 337.56 МБ   |  Зарегистрирован: 25 мар 2018, 12:30   |   .torrent скачан: 0 раз
Сидеров: 1  [ 0 байт/сек ]     Личеров: 0  [ 0 байт/сек ]  
  

(Atmospheric Black Metal) [CD] Drudkh - Їм часто сниться капіж (They Often See Dreams About the Spring) - 2018, FLAC (image+.cue), lossless

Сообщение Nakazhu » 25 мар 2018, 12:30



Жанр: Atmospheric Black Metal
Носитель: CD
Страна-производитель диска (релиза): France
Год издания: 2018
Издатель (лейбл): Season of Mist Underground Activists
Номер по каталогу: SUA 086D
Страна исполнителя (группы): Ukraine
Аудиокодек: FLAC (*.flac)
Тип рипа: image+.cue
Битрейт аудио: lossless
Продолжительность: 00:43:30
Источник (релизер): Vampiro (Спасибо!)
Наличие сканов в содержимом раздачи: да

01. Накрита неба бурим дахом... (09:53)
02. У дахів іржавім колоссю... (08:43)
03. Вечірній смерк окутує кімнати... (09:29)
04. За зорею, що стрілою сяє... (06:45)
05. Білявий день втомився і притих... (08:40)
Код: Выделить всё
Exact Audio Copy V1.3 from 2. September 2016
EAC extraction logfile from 12. March 2018, 20:45
Drudkh / They Often See Dreams About the Spring
Used drive  : PLEXTOR DVDR   PX-891SA   Adapter: 1  ID: 0
Read mode               : Secure
Utilize accurate stream : Yes
Defeat audio cache      : Yes
Make use of C2 pointers : No
Read offset correction                      : 6
Overread into Lead-In and Lead-Out          : No
Fill up missing offset samples with silence : Yes
Delete leading and trailing silent blocks   : No
Null samples used in CRC calculations       : Yes
Used interface                              : Native Win32 interface for Win NT & 2000
Used output format              : User Defined Encoder
Selected bitrate                : 896 kBit/s
Quality                         : High
Add ID3 tag                     : No
Command line compressor         : C:\Program Files (x86)\Exact Audio Copy\Flac\flac.exe
Additional command line options : -6 -V %source%
TOC of the extracted CD
     Track |   Start  |  Length  | Start sector | End sector
    ---------------------------------------------------------
        1  |  0:00.00 |  9:52.70 |         0    |    44469
        2  |  9:52.70 |  8:43.00 |     44470    |    83694
        3  | 18:35.70 |  9:28.68 |     83695    |   126362
        4  | 28:04.63 |  6:45.24 |    126363    |   156761
        5  | 34:50.12 |  8:39.47 |    156762    |   195733
Range status and errors
Selected range
     Filename D:\MeTaLMaDNeSS.TeaM\Drudkh (UKR) - They Often See Dreams About the Spring (Digipak)\Drudkh - They Often See Dreams About the Spring.wav
     Peak level 97.4 %
     Extraction speed 2.9 X
     Range quality 100.0 %
     Test CRC B9C54C55
     Copy CRC B9C54C55
     Copy OK
No errors occurred
AccurateRip summary
Track  1  not present in database
Track  2  not present in database
Track  3  not present in database
Track  4  not present in database
Track  5  not present in database
None of the tracks are present in the AccurateRip database
End of status report
---- CUETools DB Plugin V2.1.6
[CTDB TOCID: HSowebXSuzM2jHAge0M9CBzP40c-] found
Submit result: HSowebXSuzM2jHAge0M9CBzP40c- has been confirmed
Track | CTDB Status
  1   | (3/3) Accurately ripped
  2   | (3/3) Accurately ripped
  3   | (3/3) Accurately ripped
  4   | (3/3) Accurately ripped
  5   | (3/3) Accurately ripped
==== Log checksum 36BA989BB65F95C2C3AD6AB1ECA90D244F960690EBDCE14C9112E1075E95D967 ====
Код: Выделить всё
REM GENRE "Atmospheric Black Metal"
REM DATE "2018"
REM DISCID 400A3105
REM COMMENT "ExactAudioCopy v1.3"
PERFORMER "Drudkh"
TITLE "Їм часто сниться капіж"
FILE "Drudkh - 2018 - Їм часто сниться капіж.flac" WAVE
  TRACK 01 AUDIO
    TITLE "Накрита неба бурим дахом..."
    PERFORMER "Drudkh"
    INDEX 01 00:00:00
  TRACK 02 AUDIO
    TITLE "У дахів іржавім колоссю..."
    PERFORMER "Drudkh"
    INDEX 01 09:52:70
  TRACK 03 AUDIO
    TITLE "Вечірній смерк окутує кімнати..."
    PERFORMER "Drudkh"
    INDEX 01 18:35:70
  TRACK 04 AUDIO
    TITLE "За зорею, що стрілою сяє..."
    PERFORMER "Drudkh"
    INDEX 01 28:04:63
  TRACK 05 AUDIO
    TITLE "Білявий день втомився і притих..."
    PERFORMER "Drudkh"
    INDEX 01 34:50:12
Код: Выделить всё
-----------------------
DON'T MODIFY THIS FILE
-----------------------
PERFORMER: auCDtect Task Manager, ver. 1.6.0 RC1 build 1.6.0.1
Copyright (c) 2008-2010 y-soft. All rights reserved
[url=http://y-soft.org]http://y-soft.org[/url]
ANALYZER: auCDtect: CD records authenticity detector, version 0.8.2
Copyright (c) 2004 Oleg Berngardt. All rights reserved.
Copyright (c) 2004 Alexander Djourik. All rights reserved.
FILE: Drudkh - 2018 - Їм часто сниться капіж.flac
  Size: 325922296 Hash: 13BFEE5383700A2AAC8C6CCEE95E099E Accuracy: -m0
  Conclusion: CDDA 100%
  Signature: 0E791275EDB3634C9EF44B8834046DFF0C81D672
Код: Выделить всё
foobar2000 1.3.17 / Dynamic Range Meter 1.1.1
log date: 2018-03-25 12:14:54
--------------------------------------------------------------------------------
Analyzed: Drudkh / Їм часто сниться капіж
--------------------------------------------------------------------------------
DR         Peak         RMS     Duration Track
--------------------------------------------------------------------------------
DR7       -0.22 dB    -8.54 dB      9:53 01-Накрита неба бурим дахом...
DR7       -0.24 dB    -8.77 dB      8:43 02-У дахів іржавім колоссю...
DR7       -0.28 dB    -7.73 dB      9:29 03-Вечірній смерк окутує кімнати...
DR7       -0.25 dB    -8.62 dB      6:45 04-За зорею, що стрілою сяє...
DR7       -0.25 dB    -8.15 dB      8:40 05-Білявий день втомився і притих...
--------------------------------------------------------------------------------
Number of tracks:  5
Official DR value: DR7
Samplerate:        44100 Hz
Channels:          2
Bits per sample:   16
Bitrate:           999 kbps
Codec:             FLAC
================================================================================
Issued in standard digipak with 16 page booklet.
Lyrics of Ukrainian poets were used on this album:
- Track 1: Bohdan Ihor Antonych "До холодних зір", 1936
- Track 2: Maik (Mykhailo) Yohansen "Я знаю: я загину", 1920
- Track 3: Бобинський Василь Петрович "Вечірня мелодія", 1917
- Track 4: Bohdan Ihor Antonych "За зорею, що стрілою сяє...", 1933
- Track 5: Филипович Павло Петрович "Білявий день втомився і притих...", 1922
Roman Sayenko - Guitars
Thurios - Guitars, Vocals
Krechet - Bass
Vlad - Drums, Keyboards
 
Не забывайте говорить Спасибо. Не уходите с раздачи!   
Торрент: Зарегистрирован [25 мар 2018, 12:30] Скачать торрент
Скачать торрент
[ Размер 15.31 КБ / Просмотров 4 ]
Статус:
Проверен
 
.torrent скачан: 0 раз
Хэш: e86c414750e58cbb0fe6e8868bad4ec9ced117a7
Размер: 337.56 МБ (353 954 823 байт)
Стать Автором раздачи
 
 
Раздал: 0 байт
Скачал: 0 байт
Ратио: Inf.
Сообщения: 487468
Зарегистрирован: 17 апр 2014, 13:57


  • Похожие торренты
    Ответы
    Просмотры
    Последнее сообщение

Вернуться в Металл (lossless)

Ресурс не предоставляет электронные версии произведений, а занимается лишь коллекционированием и каталогизацией ссылок, присылаемых и публикуемых на форуме нашими читателями. Если вы являетесь правообладателем какого-либо представленного материала и не желаете чтобы ссылка на него находилась в нашем каталоге, свяжитесь с нами и мы незамедлительно удалим её. Файлы для обмена на трекере предоставлены пользователями сайта, и администрация не несёт ответственности за их содержание. Просьба не заливать файлы, защищенные авторскими правами, а также файлы нелегального содержания!
cron