(Non-Music, Poetry) [LP] [16/44,1] Евгений Евтушенко – "Голубь В Сантьяго" И Другие Стихи. Читает Автор - 1980, FLAC (image+.cue)

 
 Статистика раздачи 
Размер: 245.72 МБ   |  Зарегистрирован: 23 мар 2018, 07:46   |   .torrent скачан: 0 раз
Сидеров: 1  [ 0 байт/сек ]     Личеров: 0  [ 0 байт/сек ]  
  

(Non-Music, Poetry) [LP] [16/44,1] Евгений Евтушенко – "Голубь В Сантьяго" И Другие Стихи. Читает Автор - 1980, FLAC (image+.cue)

Сообщение Nakazhu » 23 мар 2018, 07:46

Евгений Евтушенко
"Голубь В Сантьяго" И Другие Стихи. Читает Автор (1980)

Жанр: Non-Music, Poetry
Носитель: LP
Год выпуска: 1980
Лейбл: Мелодия – С 40 —14403-04
Страна-производитель: USSR
Аудио кодек: FLAC
Тип рипа: image+.cue
Формат записи: 24/176,4
Формат раздачи: 16/44,1
Продолжительность: 00:47:12
Тэги в .cue: прописаны
Источник оцифровки: автором раздачи
Код класса состояния винила: VG
Устройство воспроизведения: Электроника ЭП 017С
Головка звукоснимателя: ГЗМ – 028 (Корвет)
Предварительный усилитель: AMX - 100 (LTO®)
АЦП: Juli@
Программа-оцифровщик: Adobe Audition CS6 5.0.2
Обработка: удаление артефактов

A1 Голубь В Сантьяго, Фрагмент Поэмы
A2.1 Москва — Иваново
A2.2 Усмешка
B1 Байкал
B2 В Лодке Под Дождем
B3 Творчество
B4 Забудьте Меня
B5 Дежурные На Этажах
B6 Агент По Страхованию
B7 Долголетие
B8 «Когда-то Мы Спали Валетом...»

Код: Выделить всё
foobar2000 1.1.3 / Dynamic Range Meter 1.1.1
log date: 2018-03-22 15:56:12
--------------------------------------------------------------------------------
Analyzed: Евгений Евтушенко / ''Голубь В Сантьяго'' И Другие Стихи
--------------------------------------------------------------------------------
DR         Peak         RMS     Duration Track
--------------------------------------------------------------------------------
DR18      -0.10 dB   -22.66 dB     17:17 ?-A1 Голубь В Сантьяго, Фрагмент Поэмы
DR18      -2.21 dB   -25.60 dB      4:47 ?-A2.1 Москва — Иваново
DR16      -2.49 dB   -23.29 dB      1:40 ?-A2.2 Усмешка
DR16      -0.13 dB   -20.63 dB      3:48 ?-B1 Байкал
DR18      -2.01 dB   -26.47 dB      2:57 ?-B2 В Лодке Под Дождем
DR16      -0.48 dB   -22.06 dB      3:48 ?-B3 Творчество
DR19      -1.14 dB   -27.33 dB      1:58 ?-B4 Забудьте Меня
DR17      -0.10 dB   -21.64 dB      3:01 ?-B5 Дежурные На Этажах
DR18      -0.10 dB   -24.77 dB      3:30 ?-B6 Агент По Страхованию
DR16      -1.12 dB   -23.50 dB      2:48 ?-B7 Долголетие
DR16      -2.07 dB   -24.04 dB      1:37 ?-B.8 «Когда-то Мы Спали Валетом...»
--------------------------------------------------------------------------------
Number of tracks:  11
Official DR value: DR17
Samplerate:        44100 Hz
Channels:          2
Bits per sample:   16
Bitrate:           705 kbps
Codec:             FLAC
================================================================================
Код: Выделить всё
REM GENRE "Non-Music, Poetry"
REM DATE "1980"
REM COMMENT "Vinyl, LP, Мелодия – С 40 —14403-04, USSR"
TITLE "''Голубь В Сантьяго'' И Другие Стихи"
PERFORMER "Евгений Евтушенко"
FILE "01. Сторона 1.flac" WAVE
  TRACK 01 AUDIO
    TITLE "A1 Голубь В Сантьяго, Фрагмент Поэмы"
    INDEX 01 00:00:00
  TRACK 02 AUDIO
    TITLE "A2.1 Москва — Иваново"
    INDEX 01 17:16:47
  TRACK 03 AUDIO
    TITLE "A2.2 Усмешка"
    INDEX 01 22:03:21
FILE "02. Сторона 2.flac" WAVE
  TRACK 04 AUDIO
    TITLE "B1 Байкал"
    INDEX 01 00:00:00
  TRACK 05 AUDIO
    TITLE "B2 В Лодке Под Дождем"
    INDEX 01 03:48:27
  TRACK 06 AUDIO
    TITLE "B3 Творчество"
    INDEX 01 06:45:07
  TRACK 07 AUDIO
    TITLE "B4 Забудьте Меня"
    INDEX 01 10:33:28
  TRACK 08 AUDIO
    TITLE "B5 Дежурные На Этажах"
    INDEX 01 12:31:52
  TRACK 09 AUDIO
    TITLE "B6 Агент По Страхованию"
    INDEX 01 15:32:64
  TRACK 10 AUDIO
    TITLE "B7 Долголетие"
    INDEX 01 19:03:26
  TRACK 11 AUDIO
    TITLE "B.8 «Когда-то Мы Спали Валетом...»"
    INDEX 01 21:51:37

Доп. информация: Раздачу "прилепил" в этот раздел, т. к. профильный, увы, закрыт.


 
Не забывайте говорить Спасибо. Не уходите с раздачи!   
Торрент: Зарегистрирован [23 мар 2018, 07:46] Скачать торрент
Скачать торрент
[ Размер 20.08 КБ / Просмотров 4 ]
Статус:
Проверен
 
.torrent скачан: 0 раз
Хэш: 3c8f1cae3ea44b36d93890598d80df0f70dfa070
Размер: 245.72 МБ (257 659 117 байт)
Стать Автором раздачи
 
 
Раздал: 0 байт
Скачал: 0 байт
Ратио: Inf.
Сообщения: 487468
Зарегистрирован: 17 апр 2014, 13:57


  • Похожие торренты
    Ответы
    Просмотры
    Последнее сообщение

Вернуться в Собственные оцифровки (Шансон и Авторская песня) lossless

Ресурс не предоставляет электронные версии произведений, а занимается лишь коллекционированием и каталогизацией ссылок, присылаемых и публикуемых на форуме нашими читателями. Если вы являетесь правообладателем какого-либо представленного материала и не желаете чтобы ссылка на него находилась в нашем каталоге, свяжитесь с нами и мы незамедлительно удалим её. Файлы для обмена на трекере предоставлены пользователями сайта, и администрация не несёт ответственности за их содержание. Просьба не заливать файлы, защищенные авторскими правами, а также файлы нелегального содержания!
cron