[TR24][OF] Bruce Springsteen - We Shall Overcome - The Seeger Sessions (American Land Edition) - 2006 (Rock, Folk Rock, Country Rock)

 
 Статистика раздачи 
Размер: 902.87 МБ   |  Зарегистрирован: 22 мар 2018, 12:07   |   .torrent скачан: 0 раз
Сидеров: 1  [ 0 байт/сек ]     Личеров: 0  [ 0 байт/сек ]  
  

[TR24][OF] Bruce Springsteen - We Shall Overcome - The Seeger Sessions (American Land Edition) - 2006 (Rock, Folk Rock, Country Rock)

Сообщение Nakazhu » 22 мар 2018, 12:07

Bruce Springsteen / We Shall Overcome - The Seeger Sessions
Формат записи/Источник записи: [TR24][OF]
Наличие водяных знаков: Нет
Год издания/переиздания диска: 2006
Жанр: Rock, Folk Rock, Country Rock
Издатель (лейбл): Columbia
Продолжительность: 01:17:50
Наличие сканов в содержимом раздачи: Front
Источник (релизер): 7digital
Контейнер: FLAC (*.flac)
Тип рипа: tracks
Разрядность: 24/44,1
Формат: PCM
Количество каналов: 2.0
Треклист:
01. Old Dan Tucker
02. Jesse James (Just Ask)
03. Mrs. McGrath
04. O Mary Don't You Weep
05. John Henry
06. Erie Canal
07. Jacob's Ladder (Excerpt)
08. My Oklahoma Home
09. Eyes on the Prize
10. Shenandoah
11. Pay Me My Money Down
12. We Shall Overcome
13. Froggie Went a Courtin'
14. Buffalo Gals
15. How Can I Keep from Singing
16. How Can a Poor Man Stand Such Times and Live (Bruce Springsteen Version)
17. Bring 'Em Home
18. American Land
Код: Выделить всё
foobar2000 1.1.10 / Dynamic Range Meter 1.1.1
log date: 2018-03-22 11:51:56
--------------------------------------------------------------------------------
Analyzed: Bruce Springsteen / We Shall Overcome (The Seeger Sessions) [American Land Edition]
--------------------------------------------------------------------------------
DR         Peak         RMS     Duration Track
--------------------------------------------------------------------------------
DR8       -1.20 dB   -11.09 dB      2:31 ?-Old Dan Tucker
DR7       -1.20 dB    -9.99 dB      3:48 ?-Jesse James (Just Ask)
DR7       -1.20 dB   -11.42 dB      4:20 ?-Mrs. McGrath
DR8       -1.20 dB   -10.94 dB      6:05 ?-O Mary Don't You Weep
DR7       -1.20 dB    -9.87 dB      5:07 ?-John Henry
DR7       -1.20 dB   -11.59 dB      4:03 ?-Erie Canal
DR7       -1.20 dB    -9.42 dB      4:28 ?-Jacob's Ladder (Excerpt)
DR8       -1.20 dB   -10.45 dB      6:04 ?-My Oklahoma Home
DR7       -1.20 dB   -11.37 dB      5:17 ?-Eyes on the Prize
DR10      -1.20 dB   -14.72 dB      4:53 ?-Shenandoah
DR7       -1.20 dB   -10.13 dB      4:32 ?-Pay Me My Money Down
DR8       -1.20 dB   -11.27 dB      4:53 ?-We Shall Overcome
DR9       -1.20 dB   -12.27 dB      4:36 ?-Froggie Went a Courtin'
DR6       -1.20 dB    -9.05 dB      3:12 ?-Buffalo Gals
DR8       -1.27 dB   -13.52 dB      2:20 ?-How Can I Keep from Singing
DR8       -1.20 dB   -10.56 dB      3:23 ?-How Can a Poor Man Stand Such Times and Live (Bruce Springsteen Version)
DR7       -1.20 dB   -10.80 dB      3:36 ?-Bring 'Em Home
DR7       -1.20 dB    -9.87 dB      4:42 ?-American Land
--------------------------------------------------------------------------------
Number of tracks:  18
Official DR value: DR8
Samplerate:        44100 Hz
Channels:          2
Bits per sample:   24
Bitrate:           1725 kbps
Codec:             FLAC
================================================================================
Bruce Springsteen – lead vocals, guitar, harmonica, B-3 organ, and percussion
Sam Bardfeld – violin
Art Baron – tuba
Frank Bruno – guitar
Jeremy Chatzky – upright bass
Mark Clifford – banjo
Larry Eagle – drums and percussion
Charles Giordano – B-3 organ, piano, and accordion
Ed Manion – saxophone
Mark Pender – trumpet, backing vocals
Richie "La Bamba" Rosenberg – trombone, backing vocals
Patti Scialfa – backing vocals
Soozie Tyrell – violin, backing vocals
Lorsque Bruce Springsteen accède à une reconnaissance nationale en 1975 après s’y être évertué pendant une décennie, les critiques l’acclament comme le sauveur du rock, le seul artiste se montrant capable de réconcilier l’exubérance du rock des années 50 et la spiritualité du rock des années 60 à travers un style très années 70. Son rock déménage autant que celui de Jerry Lee Lewis, ses paroles sont aussi compliquées que celles de Bob Dylan et ses concerts ressemblent à des cérémonies religieuses. Plusieurs dizaines d’années après, Springsteen est toujours une star bien établie dont la carrière a produit l’un des albums les plus vendus de tous les temps (Born in the U.S.A. en 1984), rempli des stades lors de ses concerts et amené un groupe d’imitateurs à créer leur propre sous-genre.
https://ru.wikipedia.org/wiki/Спрингстин,_Брюс
https://en.wikipedia.org/wiki/Bruce_Springsteen

Раздаю до первых 5-ти скачавших, на раздачи не возвращаюсь...

 
Не забывайте говорить Спасибо. Не уходите с раздачи!   
Торрент: Зарегистрирован [22 мар 2018, 12:07] Скачать торрент
Скачать торрент
[ Размер 19.26 КБ / Просмотров 23 ]
Статус:
Проверен
 
.torrent скачан: 0 раз
Хэш: 11df349a4370a4a8546968ef85d1d96b5b14cf8f
Размер: 902.87 МБ (946 729 888 байт)
Стать Автором раздачи
 
 
Раздал: 0 байт
Скачал: 0 байт
Ратио: Inf.
Сообщения: 487468
Зарегистрирован: 17 апр 2014, 13:57


Re: [TR24][OF] Bruce Springsteen - We Shall Overcome - The Seeger Sessions (American Land Edition) - 2006 (Rock, Folk Rock, Country Rock)

Сообщение yuk66 » 19 дек 2018, 19:50

Спасибо! Очень нравится этот фолк релиз Спрингстина :music:
 
Раздал: 200 ГБ
Скачал: 9 МБ
Ратио: 22755.556
Сообщения: 1
Зарегистрирован: 27 июн 2017, 15:33


  • Похожие торренты
    Ответы
    Просмотры
    Последнее сообщение

Вернуться в Зарубежный рок (Hi-Res stereo)

Ресурс не предоставляет электронные версии произведений, а занимается лишь коллекционированием и каталогизацией ссылок, присылаемых и публикуемых на форуме нашими читателями. Если вы являетесь правообладателем какого-либо представленного материала и не желаете чтобы ссылка на него находилась в нашем каталоге, свяжитесь с нами и мы незамедлительно удалим её. Файлы для обмена на трекере предоставлены пользователями сайта, и администрация не несёт ответственности за их содержание. Просьба не заливать файлы, защищенные авторскими правами, а также файлы нелегального содержания!
cron