Лягушка-путешественница (Валентин Караваев) [1995, Мультфильм, сказка, DVDRip]

 
 Статистика раздачи 
Размер: 185.41 МБ   |  Зарегистрирован: 21 мар 2018, 10:41   |   .torrent скачан: 0 раз
Сидеров: 1  [ 0 байт/сек ]     Личеров: 0  [ 0 байт/сек ]  
  

Лягушка-путешественница (Валентин Караваев) [1995, Мультфильм, сказка, DVDRip]

Сообщение Nakazhu » 21 мар 2018, 10:41

Лягушка-путешественница
Страна: Россия
Жанр: Мультфильм, сказка
Продолжительность: ~ 0:10:01
Год выпуска: 1995
Выпущено: Анимафильм
Режиссёр: Валентин Караваев
Русские субтитры: нет
Описание:
По мотивам сказки Всеволода Гаршина «Лягушка-путешественица».
Жила-была на болоте лягушка, и любила она петь. Однажды осенью на болото спустились утки. Но это были не простые утки, а Ансамбль северного народного танца. И летели они не просто на юг, а на гастроли — за границу. Лягушка подумала и попросила уток взять её с собой. «Пусть две утки возьмут в клювы прутик, а я прицеплюсь за него посередине», — сказала она. Затем лягушка спела и сплясала «Лягушачью ламбаду» так зажигательно, что утки согласились.
«Мне вы позавидуйте, подруги!
Побываю я на знойном юге!
Мне ночами постоянно снится
Танцевально-золотая заграница!»

Утки полетели и понесли лягушку. Когда они пролетали над деревней, там закричали люди: «Смотрите! Утки лягушку несут! И кто придумал такую хитрую штуку!» И лягушка не выдержала и завопила: «Это я! Я придумала!» К счастью, она упала в местное болото. Переведя дух, она принялась рассказывать местным лягушкам свои фантазии о своём путешествии на знойный юг.
__
Фильм участвовал в Тарусе-1997.
Режиссёр: Валентин Караваев
сценарист: Валентин Караваев
художники-постановщики: Галина Мелько, Гелий Аркадьев
художники-мультипликаторы: Виолетта Колесникова, Мстислав Купрач, Иосиф Куроян, Марина Рогова, Валентин Караваев
операторы: Сергей Хлебников, Дмитрий Жуков
композитор: Евгений Крылатов
звукооператор: Владимир Кутузов
Роли озвучивали: Ирина Муравьёва (Лягушка), Алексей Баталов (от автора).
Доп. информация:
Песни на стихи Юрия Энтина поёт Татьяна Куинджи.
Частушки Э. Масловой исполняет Е. Шарапова.
Качество: DVDRip
Формат: AVI
Видео кодек: XviD
Аудио кодек: AC3
Видео: 720x544 (1.32:1), 25 fps, XviD build 64 ~2387 kbps avg, 0.24 bit/pixel
Аудио: 48 kHz, AC3 Dolby Digital, 2/0 (L,R) ch, ~192 kbps
Субтитры: отсутствуют
Код: Выделить всё
Общее
Полное имя                       : D:\Мульты\Лягушка-путешественница (1995).avi
Формат                           : AVI
Формат/Информация                : Audio Video Interleave
Размер файла                     : 185 Мбайт
Продолжительность                : 10 м.
Общий поток                      : 2589 Кбит/сек
Программа кодирования            : VirtualDubMod 1.5.10.2 (build 2540/release)
Библиотека кодирования           : VirtualDubMod build 2540/release
Видео
Идентификатор                    : 0
Формат                           : MPEG-4 Visual
Профиль формата                  : Advanced Simple@L5
Параметр BVOP формата            : 2
Параметр QPel формата            : Нет
Параметр GMC формата             : Без точки перехода
Параметр матрицы формата         : Выборочная
Идентификатор кодека             : XVID
Идентификатор кодека/Подсказка   : XviD
Продолжительность                : 10 м.
Битрейт                          : 2387 Кбит/сек
Ширина                           : 720 пикселей
Высота                           : 544 пикселя
Соотношение сторон               : 4:3
Частота кадров                   : 25,000 кадров/сек
Цветовое пространство            : YUV
Субдискретизация насыщенности    : 4:2:0
Битовая глубина                  : 8 бит
Тип развёртки                    : Прогрессивная
Метод сжатия                     : С потерями
Бит/(Пиксели*Кадры)              : 0.244
Размер потока                    : 171 Мбайт (92%)
Библиотека кодирования           : XviD 64
Аудио
Идентификатор                    : 1
Формат                           : AC-3
Формат/Информация                : Audio Coding 3
Расширение режима                : CM (complete main)
Идентификатор кодека             : 2000
Продолжительность                : 10 м.
Вид битрейта                     : Постоянный
Битрейт                          : 192 Кбит/сек
Каналы                           : 2 канала
Расположение каналов             : Front: L R
Частота                          : 48,0 КГц
Битовая глубина                  : 16 бит
Метод сжатия                     : С потерями
Размер потока                    : 13,7 Мбайт (7%)
Выравнивание                     : Разделение по промежуткам
Продолжительность промежутка     : 40  мс. (1,00 видеокадр)
Время предзагрузки промежутка    : 500  мс.

Сравнение с другой раздачей:
"Лягушка-путешественница" (winjoo, 720х576, 1985 kbps; MP3 128kbps)
http://screenshotcomparison.com/comparison/134825
 
Не забывайте говорить Спасибо. Не уходите с раздачи!   
Торрент: Зарегистрирован [21 мар 2018, 10:41] Скачать торрент
Скачать торрент
[ Размер 14.96 КБ / Просмотров 3 ]
Статус:
Проверен
 
.torrent скачан: 0 раз
Хэш: e81ae890682419388a79a51c7f849e84a93b2c2a
Размер: 185.41 МБ (194 412 544 байт)
Стать Автором раздачи
 
 
Раздал: 0 байт
Скачал: 0 байт
Ратио: Inf.
Сообщения: 487468
Зарегистрирован: 17 апр 2014, 13:57


  • Похожие торренты
    Ответы
    Просмотры
    Последнее сообщение

Вернуться в Отечественные мультфильмы

Ресурс не предоставляет электронные версии произведений, а занимается лишь коллекционированием и каталогизацией ссылок, присылаемых и публикуемых на форуме нашими читателями. Если вы являетесь правообладателем какого-либо представленного материала и не желаете чтобы ссылка на него находилась в нашем каталоге, свяжитесь с нами и мы незамедлительно удалим её. Файлы для обмена на трекере предоставлены пользователями сайта, и администрация не несёт ответственности за их содержание. Просьба не заливать файлы, защищенные авторскими правами, а также файлы нелегального содержания!
cron