Приключения Паддингтона 2 / Paddington 2 (Пол Кинг / Paul King) [2017, Великобритания, Франция, США, фэнтези, комедия, семейный, BDRip-AVC] Dub + Sub Eng + Original Eng

 
 Статистика раздачи 
Размер: 748.47 МБ   |  Зарегистрирован: 14 мар 2018, 01:48   |   .torrent скачан: 0 раз
Сидеров: 1  [ 0 байт/сек ]     Личеров: 0  [ 0 байт/сек ]  
  

Приключения Паддингтона 2 / Paddington 2 (Пол Кинг / Paul King) [2017, Великобритания, Франция, США, фэнтези, комедия, семейный, BDRip-AVC] Dub + Sub Eng + Original Eng

Сообщение Nakazhu » 14 мар 2018, 01:48

Приключения Паддингтона 2 / Paddington 2
Страна: Великобритания, Франция, США
Жанр: фэнтези, комедия, семейный
Год выпуска: 2017
Продолжительность: 01:43:17
Перевод: Профессиональный (дублированный)
Оригинальная аудиодорожка: Английский (Full, SDH)
Субтитры: Английские (Full, SDH)

Режиссер: Пол Кинг / Paul King

В ролях: Майкл Гэмбон, Имелда Стонтон, Бен Уишоу, Мадлен Харрис, Сэмюэл Джослин, Салли Хокинс, Хью Бонневилль, Джули Уолтерс, Мари-Франс Альварез, Санджив Бхаскар...

Описание: В антикварном магазине Лондона обаятельный и хорошо воспитанный медведь Паддингтон находит уникальную старинную книгу. Пока он изо всех своих медвежьих сил старается накопить на нее деньги, редчайшее издание внезапно похищают. Паддингтон оказывается вовлечен в аферу века, затеянную знаменитым, но вышедшим в тираж актером, который ныне рекламирует собачьи консервы, а свой талант к перевоплощению использует в охоте за сокровищами, спрятанными по всему Лондону.

Доп. информация: | IMDB | КиноПоиск | Сэмпл |

Качество видео: BDRip-AVC
Формат видео: MKV
Видео: 752x314, (2.40:1), 885 kbps, 24,000 fps, 0.156 bit/pixel
Аудио 1: AАС-HE, 48.0 KHz, 64 Kbps, 2 channels
Аудио 2: AАС-HE, 48.0 KHz, 64 Kbps, 2 channels
Формат субтитров: softsub (SRT)
raw [info]: 752x314p 1:1 @ 10000000/416667 fps (cfr)
x264 [info]: using SAR=1/1
x264 [info]: using cpu capabilities: MMX2 SSE2Fast SSSE3 SSE4.2 AVX
x264 [info]: profile High, level 4.1
x264 [info]: frame I:1517 Avg QP:17.01 size: 44432
x264 [info]: frame P:34578 Avg QP:20.66 size: 9837
x264 [info]: frame B:112655 Avg QP:22.45 size: 2468
x264 [info]: consecutive B-frames: 2.4% 3.8% 9.1% 31.3% 16.0% 30.3% 3.1% 1.1% 0.7% 0.2% 0.6% 0.1% 0.5% 0.0% 0.5% 0.2%
x264 [info]: mb I I16..4: 3.7% 62.7% 33.6%
x264 [info]: mb P I16..4: 0.7% 6.3% 1.8% P16..4: 34.0% 24.8% 16.9% 0.0% 0.0% skip:15.4%
x264 [info]: mb B I16..4: 0.1% 0.5% 0.2% B16..8: 31.3% 9.0% 3.2% direct: 3.9% skip:51.8% L0:38.3% L1:43.2% BI:18.5%
x264 [info]: 8x8 transform intra:68.4% inter:57.5%
x264 [info]: direct mvs spatial:96.0% temporal:4.0%
x264 [info]: coded y,uvDC,uvAC intra: 86.5% 80.8% 59.3% inter: 16.7% 13.9% 7.4%
x264 [info]: i16 v,h,dc,p: 31% 18% 6% 45%
x264 [info]: i8 v,h,dc,ddl,ddr,vr,hd,vl,hu: 14% 12% 7% 8% 11% 11% 12% 11% 13%
x264 [info]: i4 v,h,dc,ddl,ddr,vr,hd,vl,hu: 17% 11% 4% 8% 13% 12% 13% 10% 12%
x264 [info]: i8c dc,h,v,p: 39% 26% 22% 13%
x264 [info]: Weighted P-Frames: Y:6.1% UV:3.3%
x264 [info]: ref P L0: 56.0% 14.2% 11.6% 5.4% 3.7% 2.8% 2.1% 1.2% 1.0% 0.8% 0.7% 0.6% 0.0% 0.0%
x264 [info]: ref B L0: 78.9% 10.6% 4.5% 2.0% 1.3% 0.9% 0.7% 0.4% 0.3% 0.2% 0.1%
x264 [info]: ref B L1: 95.0% 5.0%
x264 [info]: kb/s:884.88
General
Unique ID : 247943259965496725548677847230927412598 (0xBA882287FF4E2A35B6BA64AC18991D76)
Complete name : Paddington 2 (2017).mkv
Format : Matroska
Format version : Version 4 / Version 2
File size : 748 MiB
Duration : 1 h 43 min
Overall bit rate : 1 013 kb/s
Movie name : Приключения Паддингтона 2 / Paddington 2 (2017)
Encoded date : UTC 2018-03-13 22:38:11
Writing application : mkvmerge v8.1.0 ('Psychedelic Postcard') 64bit
Writing library : libebml v1.3.1 + libmatroska v1.4.2
Cover : Yes
Attachments : cover.jpg
Video
ID : 1
Format : AVC
Format/Info : Advanced Video Codec
Format profile : High@L4.1
Format settings : CABAC / 12 Ref Frames
Format settings, CABAC : Yes
Format settings, ReFrames : 12 frames
Codec ID : V_MPEG4/ISO/AVC
Duration : 1 h 43 min
Bit rate : 885 kb/s
Width : 752 pixels
Height : 314 pixels
Display aspect ratio : 2.40:1
Frame rate mode : Constant
Frame rate : 24.000 FPS
Color space : YUV
Chroma subsampling : 4:2:0
Bit depth : 8 bits
Scan type : Progressive
Bits/(Pixel*Frame) : 0.156
Stream size : 654 MiB (87%)
Title : Paddington 2 (2017) By optik.1557
Writing library : x264 core 152 r2851kMod ba24899
Encoding settings : cabac=1 / ref=12 / deblock=1:-2:-1 / analyse=0x3:0x113 / me=umh / subme=10 / psy=1 / fade_compensate=0.00 / psy_rd=1.05:0.01 / mixed_ref=1 / me_range=48 / chroma_me=1 / trellis=2 / 8x8dct=1 / cqm=0 / deadzone=21,11 / fast_pskip=0 / chroma_qp_offset=-3 / threads=6 / lookahead_threads=1 / sliced_threads=0 / nr=0 / decimate=0 / interlaced=0 / bluray_compat=0 / constrained_intra=0 / bframes=15 / b_pyramid=2 / b_adapt=2 / b_bias=0 / direct=3 / weightb=1 / open_gop=0 / weightp=2 / keyint=250 / keyint_min=23 / scenecut=40 / intra_refresh=0 / rc_lookahead=60 / rc=2pass / mbtree=0 / bitrate=885 / ratetol=1.0 / qcomp=0.70 / qpmin=0 / qpmax=69 / qpstep=4 / cplxblur=20.0 / qblur=0.5 / vbv_maxrate=50000 / vbv_bufsize=62500 / nal_hrd=none / filler=0 / ip_ratio=1.40 / pb_ratio=1.30 / aq=3:0.85
Language : English
Default : Yes
Forced : No
Audio #1
ID : 2
Format : AAC
Format/Info : Advanced Audio Codec
Format profile : HE-AAC / LC
Format settings : Explicit
Codec ID : A_AAC-2
Duration : 1 h 43 min
Bit rate : 62.6 kb/s
Channel(s) : 2 channels
Channel positions : Front: L R
Sampling rate : 48.0 kHz / 24.0 kHz
Frame rate : 23.438 FPS (1024 SPF)
Compression mode : Lossy
Stream size : 46.3 MiB (6%)
Title : Дубляж
Language : Russian
Default : Yes
Forced : No
Audio #2
ID : 3
Format : AAC
Format/Info : Advanced Audio Codec
Format profile : HE-AAC / LC
Format settings : Explicit
Codec ID : A_AAC-2
Duration : 1 h 43 min
Bit rate : 62.7 kb/s
Channel(s) : 2 channels
Channel positions : Front: L R
Sampling rate : 48.0 kHz / 24.0 kHz
Frame rate : 23.438 FPS (1024 SPF)
Compression mode : Lossy
Stream size : 46.3 MiB (6%)
Title : Original
Language : English
Default : No
Forced : No
Text #1
ID : 4
Format : UTF-8
Codec ID : S_TEXT/UTF8
Codec ID/Info : UTF-8 Plain Text
Duration : 1 h 35 min
Bit rate : 65 b/s
Count of elements : 1562
Stream size : 45.9 KiB (0%)
Title : Full
Language : English
Default : No
Forced : No
Text #2
ID : 5
Format : UTF-8
Codec ID : S_TEXT/UTF8
Codec ID/Info : UTF-8 Plain Text
Duration : 1 h 39 min
Bit rate : 86 b/s
Count of elements : 1823
Stream size : 62.7 KiB (0%)
Title : SDH
Language : English
Default : No
Forced : No
Menu
00:00:00.000 : en:00:00:00.000
00:08:08.542 : en:00:08:08.542
00:18:48.583 : en:00:18:48.583
00:27:06.000 : en:00:27:06.000
00:38:47.375 : en:00:38:47.375
00:47:46.917 : en:00:47:46.917
00:55:53.708 : en:00:55:53.708
01:02:17.500 : en:01:02:17.500
01:09:31.875 : en:01:09:31.875
01:16:39.042 : en:01:16:39.042
01:24:13.250 : en:01:24:13.250
01:33:50.000 : en:01:33:50.000
 
Не забывайте говорить Спасибо. Не уходите с раздачи!   
Торрент: Зарегистрирован [14 мар 2018, 01:48] Скачать торрент
Скачать торрент
[ Размер 15.07 КБ / Просмотров 4 ]
Статус:
Проверен
 
.torrent скачан: 0 раз
Хэш: 9cebcdf4bb8ec82993c36c221cc67ad71cc8a477
Размер: 748.47 МБ (784 825 001 байт)
Стать Автором раздачи
 
 
Раздал: 0 байт
Скачал: 0 байт
Ратио: Inf.
Сообщения: 487468
Зарегистрирован: 17 апр 2014, 13:57


  • Похожие торренты
    Ответы
    Просмотры
    Последнее сообщение

Вернуться в Зарубежное кино

Ресурс не предоставляет электронные версии произведений, а занимается лишь коллекционированием и каталогизацией ссылок, присылаемых и публикуемых на форуме нашими читателями. Если вы являетесь правообладателем какого-либо представленного материала и не желаете чтобы ссылка на него находилась в нашем каталоге, свяжитесь с нами и мы незамедлительно удалим её. Файлы для обмена на трекере предоставлены пользователями сайта, и администрация не несёт ответственности за их содержание. Просьба не заливать файлы, защищенные авторскими правами, а также файлы нелегального содержания!
cron