Алеша Попович и Тугарин Змей / Добрыня Никитич и Змей Горыныч / Илья Муромец и Соловей Разбойник / Три богатыря и Шамаханская царица, На дальних берегах, Ход конем, и принцесса Египта / Иван Царевич и Серый Волк 1, 2, 3 [2004-2017, мультфильм, AVC]

 
 Статистика раздачи 
Размер: 8.03 ГБ   |  Зарегистрирован: 14 мар 2018, 00:30   |   .torrent скачан: 0 раз
Сидеров: 1  [ 0 байт/сек ]     Личеров: 0  [ 0 байт/сек ]  
  

Алеша Попович и Тугарин Змей / Добрыня Никитич и Змей Горыныч / Илья Муромец и Соловей Разбойник / Три богатыря и Шамаханская царица, На дальних берегах, Ход конем, и принцесса Египта / Иван Царевич и Серый Волк 1, 2, 3 [2004-2017, мультфильм, AVC]

Сообщение Nakazhu » 14 мар 2018, 00:30

Название: Алеша Попович и Тугарин Змей
Страна: Россия
Жанр: мультфильм, комедия, приключения
Продолжительность: 01:18:51
Год выпуска: 2004
Перевод: Не требуется
Русские субтитры: нет

Режиссёр: Константин Бронзит

Роли озвучивали: Олег Куликович (Алеша Попович), Лия Медведева (Любава), Дмитрий Высоцкий (конь Юлий), Анатолий Петров (Тихон), Наталья Данилова (Бабушка), Сергей Маковецкий (Князь Киевский), Иван Краско (Святогор), Татьяна Иванова (Мать), Михаил Черняк (Авторский текст / Ослик Моисей, озвучка), Константин Бронзит (Тугарин), Елена Шульман (цыганка)

Описание: В древнем русском городе Ростове родился в поповской семье сын. Назвали его родители Алешей. А когда он вырос и стал богатырем, то совершил такие подвиги, что стал героем русских былин Алешей Поповичем. Только подвиги его начались с конфуза…
Подступила к Ростову тугарская вражеская орда во главе с Тугарином Змеем и потребовала, чтобы жители города выплатили дань. Поповский сын предложил план действий. Народ этот план одобрил и собрал гору золота. Алеша же умудрился собственный план «благополучно» провалить, да с каким треском!
И золото упустил, и полгорода разрушил. После чего поклялся — Тугарина Змея изловить и золото вернуть. Отправился Алеша Попович в путь вместе с дедом Тихоном, который мальчика вырастил и воспитал, а чуть позже компанию им составили говорящий конь Юлий, купленный у цыган, почти 16-летняя красавица Любава, ее бабка и их ослик Моисей…



Качество: BDRip-AVC
Формат: MKV
Видео: AVC, 808х436 (1.85:1), 23.976 fps, 1200 Kbps.
Аудио: AAC LC, 48.0 KHz, 128 Kbps, 2 channels.
Субтитры: отсутствуют
x264 [info]: frame I:1008 Avg QP:12.98 size: 73242
x264 [info]: frame P:27238 Avg QP:17.99 size: 12543
x264 [info]: frame B:85075 Avg QP:19.28 size: 3449
x264 [info]: consecutive B-frames: 3.3% 3.1% 10.4% 41.5% 15.7% 8.3% 3.0% 2.4% 1.9% 1.1% 0.9% 1.6% 1.1% 1.9% 2.3% 1.0%

General
Unique ID : 214148703131335758702093497298091640898 (0xA11B8A3CDD8EC9E3AA126D60712E0842)
Complete name : Алеша Попович и Тугарин Змей (2004).mkv
Format : Matroska
Format version : Version 4 / Version 2
File size : 747 MiB
Duration : 1 h 18 min
Overall bit rate : 1 325 kb/s
Movie name : Алеша Попович и Тугарин Змей (2004)
Encoded date : UTC 2018-03-10 20:24:44
Writing application : mkvmerge v8.1.0 ('Psychedelic Postcard') 64bit
Writing library : libebml v1.3.1 + libmatroska v1.4.2
Video
ID : 1
Format : AVC
Format/Info : Advanced Video Codec
Format profile : High@L4.1
Format settings : CABAC / 12 Ref Frames
Format settings, CABAC : Yes
Format settings, ReFrames : 12 frames
Codec ID : V_MPEG4/ISO/AVC
Duration : 1 h 18 min
Bit rate : 1 200 kb/s
Width : 808 pixels
Height : 436 pixels
Display aspect ratio : 1.85:1
Frame rate mode : Constant
Frame rate : 23.976 (24000/1001) FPS
Color space : YUV
Chroma subsampling : 4:2:0
Bit depth : 8 bits
Scan type : Progressive
Bits/(Pixel*Frame) : 0.142
Stream size : 676 MiB (90%)
Title : Алеша Попович и Тугарин Змей (2004) By optik.1557
Writing library : x264 core 152 r2851kMod ba24899
Encoding settings : cabac=1 / ref=12 / deblock=1:-3:-2 / analyse=0x3:0x113 / me=umh / subme=10 / psy=1 / fade_compensate=0.00 / psy_rd=1.05:0.01 / mixed_ref=1 / me_range=48 / chroma_me=1 / trellis=2 / 8x8dct=1 / cqm=0 / deadzone=21,11 / fast_pskip=0 / chroma_qp_offset=-3 / threads=6 / lookahead_threads=1 / sliced_threads=0 / nr=0 / decimate=0 / interlaced=0 / bluray_compat=0 / constrained_intra=0 / bframes=15 / b_pyramid=2 / b_adapt=2 / b_bias=0 / direct=3 / weightb=1 / open_gop=0 / weightp=2 / keyint=250 / keyint_min=23 / scenecut=40 / intra_refresh=0 / rc_lookahead=60 / rc=2pass / mbtree=0 / bitrate=1200 / ratetol=1.0 / qcomp=0.70 / qpmin=0 / qpmax=69 / qpstep=4 / cplxblur=20.0 / qblur=0.5 / vbv_maxrate=50000 / vbv_bufsize=62500 / nal_hrd=none / filler=0 / ip_ratio=1.40 / pb_ratio=1.30 / aq=3:0.80
Language : Russian
Default : Yes
Forced : No
Color range : Limited
Color primaries : BT.709
Transfer characteristics : BT.709
Matrix coefficients : BT.709
Audio
ID : 2
Format : AAC
Format/Info : Advanced Audio Codec
Format profile : HE-AAC / LC
Format settings : Explicit
Codec ID : A_AAC-2
Duration : 1 h 18 min
Bit rate : 124 kb/s
Channel(s) : 2 channels
Channel positions : Front: L R
Sampling rate : 96.0 kHz / 48.0 kHz
Frame rate : 46.875 FPS (1024 SPF)
Compression mode : Lossy
Stream size : 70.0 MiB (9%)
Title : AAC LC, 48.0 KHz, 128 Kbps, 2 channels.
Language : Russian
Default : Yes
Forced : No
Menu
00:00:00.000 : en:Chapter 1
00:06:12.622 : en:Chapter 2
00:12:01.387 : en:Chapter 3
00:18:10.005 : en:Chapter 4
00:23:27.030 : en:Chapter 5
00:31:45.987 : en:Chapter 6
00:36:29.437 : en:Chapter 7
00:42:02.603 : en:Chapter 8
00:47:24.800 : en:Chapter 9
00:52:50.917 : en:Chapter 10
01:00:25.121 : en:Chapter 11
01:04:16.435 : en:Chapter 12
#77Название: Добрыня Никитич и Змей Горыныч
Страна: Россия
Жанр: мультфильм, комедия, приключения
Продолжительность: 01:08:08
Год выпуска: 2006
Перевод: Не требуется
Русские субтитры: нет

Режиссёр: Илья Максимов

Роли озвучивали: Валерий Соловьев (Добрыня Никитич), Юрий Тарасов (Елисей), Сергей Маковецкий (Князь Киевский), Андрей Толубеев (Купец Колыван), Екатерина Гороховская (Забава Путятична), Олег Куликович (Змей Горыныч), Анатолий Петров (Бекет - Крымский Хан), Наталья Данилова (Баба Яга), Елена Шульман (Настасья)...

Описание: Пока храбрый воин Добрыня Никитич собирал с тугар дань, в Киеве похитили любимую племянницу князя — Забаву Путятичну. Вопреки воле князя, Добрыня с женихом Забавы Елисеем отправляется на ее поиски. В пути их ждет много приключений…



Качество: BDRip-AVC
Формат: MKV
Видео: AVC, 912х492 (1.85:1), 23.976 fps, 1407 Kbps.
Аудио: AAC LC, 48.0 KHz, 128 Kbps, 2 channels.
Субтитры: отсутствуют
x264 [info]: frame I:1022 Avg QP:12.80 size: 76860
x264 [info]: frame P:24586 Avg QP:17.63 size: 14058
x264 [info]: frame B:72413 Avg QP:18.87 size: 4070
x264 [info]: consecutive B-frames: 3.4% 3.3% 12.6% 45.4% 16.4% 6.9% 2.2% 1.1% 1.1% 0.8% 0.4% 0.6% 0.5% 2.5% 1.8% 1.0%

General
Unique ID : 236285138774553167570124620836597061490 (0xB1C2DCC76C680A42B4BF88B34102D772)
Complete name : Добрыня Никитич и Змей Горыныч (2006).mkv
Format : Matroska
Format version : Version 4 / Version 2
File size : 747 MiB
Duration : 1 h 8 min
Overall bit rate : 1 533 kb/s
Movie name : Добрыня Никитич и Змей Горыныч (2006)
Encoded date : UTC 2018-03-11 10:08:44
Writing application : mkvmerge v8.1.0 ('Psychedelic Postcard') 64bit
Writing library : libebml v1.3.1 + libmatroska v1.4.2
Video
ID : 1
Format : AVC
Format/Info : Advanced Video Codec
Format profile : High@L4.1
Format settings : CABAC / 12 Ref Frames
Format settings, CABAC : Yes
Format settings, ReFrames : 12 frames
Codec ID : V_MPEG4/ISO/AVC
Duration : 1 h 8 min
Bit rate : 1 407 kb/s
Width : 912 pixels
Height : 492 pixels
Display aspect ratio : 1.85:1
Frame rate mode : Constant
Frame rate : 23.976 (24000/1001) FPS
Color space : YUV
Chroma subsampling : 4:2:0
Bit depth : 8 bits
Scan type : Progressive
Bits/(Pixel*Frame) : 0.131
Stream size : 686 MiB (92%)
Title : Добрыня Никитич и Змей Горыныч (2006) By optik.1557
Writing library : x264 core 152 r2851kMod ba24899
Encoding settings : cabac=1 / ref=12 / deblock=1:-3:-2 / analyse=0x3:0x113 / me=umh / subme=10 / psy=1 / fade_compensate=0.00 / psy_rd=1.05:0.01 / mixed_ref=1 / me_range=48 / chroma_me=1 / trellis=2 / 8x8dct=1 / cqm=0 / deadzone=21,11 / fast_pskip=0 / chroma_qp_offset=-3 / threads=6 / lookahead_threads=1 / sliced_threads=0 / nr=0 / decimate=0 / interlaced=0 / bluray_compat=0 / constrained_intra=0 / bframes=15 / b_pyramid=2 / b_adapt=2 / b_bias=0 / direct=3 / weightb=1 / open_gop=0 / weightp=2 / keyint=250 / keyint_min=23 / scenecut=40 / intra_refresh=0 / rc_lookahead=60 / rc=2pass / mbtree=0 / bitrate=1407 / ratetol=1.0 / qcomp=0.70 / qpmin=0 / qpmax=69 / qpstep=4 / cplxblur=20.0 / qblur=0.5 / vbv_maxrate=50000 / vbv_bufsize=62500 / nal_hrd=none / filler=0 / ip_ratio=1.40 / pb_ratio=1.30 / aq=3:0.80
Language : Russian
Default : Yes
Forced : No
Color range : Limited
Color primaries : BT.709
Transfer characteristics : BT.709
Matrix coefficients : BT.709
Audio
ID : 2
Format : AAC
Format/Info : Advanced Audio Codec
Format profile : HE-AAC / LC
Format settings : Explicit
Codec ID : A_AAC-2
Duration : 1 h 8 min
Bit rate : 124 kb/s
Channel(s) : 2 channels
Channel positions : Front: L R
Sampling rate : 96.0 kHz / 48.0 kHz
Frame rate : 46.875 FPS (1024 SPF)
Compression mode : Lossy
Stream size : 60.5 MiB (8%)
Title : AAC LC, 48.0 KHz, 128 Kbps, 2 channels.
Language : Russian
Default : Yes
Forced : No
Menu
00:00:00.000 : en:Chapter 1
00:05:01.175 : en:Chapter 2
00:09:28.317 : en:Chapter 3
00:15:43.067 : en:Chapter 4
00:20:02.117 : en:Chapter 5
00:25:12.135 : en:Chapter 6
00:29:37.025 : en:Chapter 7
00:35:37.218 : en:Chapter 8
00:39:56.435 : en:Chapter 9
00:45:05.494 : en:Chapter 10
00:49:34.763 : en:Chapter 11
00:55:26.948 : en:Chapter 12
#77Название: Илья Муромец и Соловей Разбойник
Страна: Россия
Жанр: мультфильм, комедия, приключения
Продолжительность: 01:19:31
Год выпуска: 2007
Перевод: Не требуется
Русские субтитры: нет

Режиссёр: Владимир Торопчин

Роли озвучивали: Олег Табаков (Василевс, Император Византийский), Екатерина Гороховская (Алёнушка), Валерий Соловьев (Илья Муромец), Сергей Маковецкий (Князь Киевский), Анатолий Петров (Пройдоха / Погонщик Коня), Андрей Толубеев (Соловей-разбойник), Олег Куликович (бандит), Юрий Тарасов (Помомщник Василевса), Наталья Данилова (Мама Ильи / Византийская бабушка)

Описание: Славится земля русская богатырями богатырскими да разбойниками разбойничьими…
А сверху всего князь княжеский сидит, за всем следит и порядок наводит, если нужно. Да только не всегда выходит у князя так, как нужно — правильно.
Вот и сейчас — с богатырём поругался да от Соловья Разбойника урон потерпел немалый: увёл бандит окаянный казну государственную прямо из-под носа!
Что делать князю? А ничего особенного — на то он и князь, чтоб из любой ситуации выход найти! Вот и отправились князь с Ильёй на поиски похищенного, а за ними вслед увязалась корреспондентка летописи «Новая береста».
А дорога непростая выдалась, до самого Царьграда довела, где встретил их Император Византийский, да только незадача вышла — повздорили наши герои с императором этим, и заключил он против Князя Киевского и Земель русских союз с Соловьем Разбойником…



Качество: BDRip-AVC
Формат: MKV
Видео: AVC, 912х492 (1.85:1), 23.976 fps, 1190 Kbps.
Аудио: AAC LC, 48.0 KHz, 128 Kbps, 2 channels.
Субтитры: отсутствуют
x264 [info]: frame I:1312 Avg QP:14.41 size: 83822
x264 [info]: frame P:28748 Avg QP:19.34 size: 11846
x264 [info]: frame B:84331 Avg QP:20.39 size: 3072
x264 [info]: consecutive B-frames: 3.4% 3.0% 11.1% 47.9% 16.3% 8.3% 2.0% 1.2% 0.8% 2.4% 0.5% 0.5% 0.4% 0.7% 0.8% 0.8%

General
Unique ID : 238899915104355150677375987368131731553 (0xB3BA73349546CD4E8C5FF9144DBAA061)
Complete name : Илья Муромец и Соловей Разбойник (2007).mkv
Format : Matroska
Format version : Version 4 / Version 2
File size : 749 MiB
Duration : 1 h 19 min
Overall bit rate : 1 316 kb/s
Movie name : Илья Муромец и Соловей Разбойник (2007)
Encoded date : UTC 2018-03-11 18:12:19
Writing application : mkvmerge v8.1.0 ('Psychedelic Postcard') 64bit
Writing library : libebml v1.3.1 + libmatroska v1.4.2
Video
ID : 1
Format : AVC
Format/Info : Advanced Video Codec
Format profile : High@L4.1
Format settings : CABAC / 12 Ref Frames
Format settings, CABAC : Yes
Format settings, ReFrames : 12 frames
Codec ID : V_MPEG4/ISO/AVC
Duration : 1 h 19 min
Bit rate : 1 190 kb/s
Width : 912 pixels
Height : 492 pixels
Display aspect ratio : 1.85:1
Frame rate mode : Constant
Frame rate : 23.976 (24000/1001) FPS
Color space : YUV
Chroma subsampling : 4:2:0
Bit depth : 8 bits
Scan type : Progressive
Bits/(Pixel*Frame) : 0.111
Stream size : 677 MiB (90%)
Title : Илья Муромец и Соловей Разбойник (2007) By optik.1557
Writing library : x264 core 152 r2851kMod ba24899
Encoding settings : cabac=1 / ref=12 / deblock=1:-3:-2 / analyse=0x3:0x113 / me=umh / subme=10 / psy=1 / fade_compensate=0.00 / psy_rd=1.05:0.01 / mixed_ref=1 / me_range=48 / chroma_me=1 / trellis=2 / 8x8dct=1 / cqm=0 / deadzone=21,11 / fast_pskip=0 / chroma_qp_offset=-3 / threads=6 / lookahead_threads=1 / sliced_threads=0 / nr=0 / decimate=0 / interlaced=0 / bluray_compat=0 / constrained_intra=0 / bframes=15 / b_pyramid=2 / b_adapt=2 / b_bias=0 / direct=3 / weightb=1 / open_gop=0 / weightp=2 / keyint=250 / keyint_min=23 / scenecut=40 / intra_refresh=0 / rc_lookahead=60 / rc=2pass / mbtree=0 / bitrate=1190 / ratetol=1.0 / qcomp=0.70 / qpmin=0 / qpmax=69 / qpstep=4 / cplxblur=20.0 / qblur=0.5 / vbv_maxrate=50000 / vbv_bufsize=62500 / nal_hrd=none / filler=0 / ip_ratio=1.40 / pb_ratio=1.30 / aq=3:0.80
Language : Russian
Default : Yes
Forced : No
Color range : Limited
Color primaries : BT.709
Transfer characteristics : BT.709
Matrix coefficients : BT.709
Audio
ID : 2
Format : AAC
Format/Info : Advanced Audio Codec
Format profile : HE-AAC / LC
Format settings : Explicit
Codec ID : A_AAC-2
Duration : 1 h 19 min
Bit rate : 124 kb/s
Channel(s) : 2 channels
Channel positions : Front: L R
Sampling rate : 96.0 kHz / 48.0 kHz
Frame rate : 46.875 FPS (1024 SPF)
Compression mode : Lossy
Stream size : 70.7 MiB (9%)
Title : AAC LC, 48.0 KHz, 128 Kbps, 2 channels.
Language : Russian
Default : Yes
Forced : No
Menu
00:00:00.000 : en:Chapter 1
00:06:11.162 : en:Chapter 2
00:12:56.233 : en:Chapter 3
00:18:17.054 : en:Chapter 4
00:24:40.479 : en:Chapter 5
00:30:08.264 : en:Chapter 6
00:35:39.387 : en:Chapter 7
00:42:07.316 : en:Chapter 8
00:48:32.701 : en:Chapter 9
00:54:19.339 : en:Chapter 10
01:00:10.690 : en:Chapter 11
01:05:52.949 : en:Chapter 12
#77Название: Три богатыря и Шамаханская царица
Страна: Россия
Жанр: мультфильм, комедия, приключения
Продолжительность: 01:16:32
Год выпуска: 2010
Перевод: Не требуется
Русские субтитры: нет

Режиссёр: Сергей Глезин

Роли озвучивали: Дмитрий Быковский-Ромашов (Илья Муромец), Валерий Соловьев (Добрыня Никитич), Олег Куликович (Алеша Попович / Змей Горыныч), Сергей Маковецкий (князь Киевский), Анна Геллер (Шамаханская царица), Дмитрий Высоцкий (конь Юлий), Константин Бронзит (ворон), Мария Цветкова-Овсянникова (Аленушка), Елена Шульман (Настасья), Лия Медведева (Любава), Игорь Шибанов (советник), Анатолий Петров (Тихон / сэнсэй)

Описание: Легендарная Шамаханская царица, которая сводила с ума многих царей и простых смертных, положила свой глаз и на Киевского князя.
Тот заболел любовью странной по ней. Но чтобы доставить в целости и сохранности эту чудо-богиню в Киев-Град, срочно из отпуска вызывают всех троих, уже знакомых нам, богатырей: Алёшу Поповича, Добрыню Никитича и Илью Муромца.
Теперь троица должна решить, как быть дальше? Вроде бы и слухи о царице ходят нелестные, и князя жаль.



Качество: BDRip-AVC
Формат: MKV
Видео: AVC, 896x504 (16:9), 24.000 fps, 1240 Kbps.
Аудио: AAC LC, 48.0 KHz, 128 Kbps, 2 channels.
Субтитры: отсутствуют
x264 [info]: frame I:1037 Avg QP:14.95 size: 91376
x264 [info]: frame P:26697 Avg QP:17.95 size: 13270
x264 [info]: frame B:82474 Avg QP:19.63 size: 3184
x264 [info]: consecutive B-frames: 3.2% 3.0% 10.3% 43.7% 14.8% 9.4% 2.8% 3.0% 1.4% 0.9% 1.9% 1.4% 0.6% 0.9% 0.9% 0.6%

General
Unique ID : 171761265157044907349630303089449461476 (0x81380431D1AF6A69B9620E612BAB66E4)
Complete name : Три богатыря и Шамаханская царица (2010).mkv
Format : Matroska
Format version : Version 4 / Version 2
File size : 748 MiB
Duration : 1 h 16 min
Overall bit rate : 1 366 kb/s
Movie name : Три богатыря и Шамаханская царица (2010)
Encoded date : UTC 2018-03-12 03:57:34
Writing application : mkvmerge v8.1.0 ('Psychedelic Postcard') 64bit
Writing library : libebml v1.3.1 + libmatroska v1.4.2
Video
ID : 1
Format : AVC
Format/Info : Advanced Video Codec
Format profile : High@L4.1
Format settings : CABAC / 12 Ref Frames
Format settings, CABAC : Yes
Format settings, ReFrames : 12 frames
Codec ID : V_MPEG4/ISO/AVC
Duration : 1 h 16 min
Bit rate : 1 240 kb/s
Width : 896 pixels
Height : 504 pixels
Display aspect ratio : 16:9
Frame rate mode : Constant
Frame rate : 24.000 FPS
Color space : YUV
Chroma subsampling : 4:2:0
Bit depth : 8 bits
Scan type : Progressive
Bits/(Pixel*Frame) : 0.114
Stream size : 679 MiB (91%)
Title : Три богатыря и Шамаханская царица (2010) By optik.1557
Writing library : x264 core 152 r2851kMod ba24899
Encoding settings : cabac=1 / ref=12 / deblock=1:-3:-2 / analyse=0x3:0x113 / me=umh / subme=10 / psy=1 / fade_compensate=0.00 / psy_rd=1.05:0.01 / mixed_ref=1 / me_range=48 / chroma_me=1 / trellis=2 / 8x8dct=1 / cqm=0 / deadzone=21,11 / fast_pskip=0 / chroma_qp_offset=-3 / threads=6 / lookahead_threads=1 / sliced_threads=0 / nr=0 / decimate=0 / interlaced=0 / bluray_compat=0 / constrained_intra=0 / bframes=15 / b_pyramid=2 / b_adapt=2 / b_bias=0 / direct=3 / weightb=1 / open_gop=0 / weightp=2 / keyint=250 / keyint_min=23 / scenecut=40 / intra_refresh=0 / rc_lookahead=60 / rc=2pass / mbtree=0 / bitrate=1240 / ratetol=1.0 / qcomp=0.70 / qpmin=0 / qpmax=69 / qpstep=4 / cplxblur=20.0 / qblur=0.5 / vbv_maxrate=50000 / vbv_bufsize=62500 / nal_hrd=none / filler=0 / ip_ratio=1.40 / pb_ratio=1.30 / aq=3:0.80
Language : Russian
Default : Yes
Forced : No
Color range : Limited
Color primaries : BT.709
Transfer characteristics : BT.709
Matrix coefficients : BT.709
Audio
ID : 2
Format : AAC
Format/Info : Advanced Audio Codec
Format profile : HE-AAC / LC
Format settings : Explicit
Codec ID : A_AAC-2
Duration : 1 h 16 min
Bit rate : 124 kb/s
Channel(s) : 2 channels
Channel positions : Front: L R
Sampling rate : 96.0 kHz / 48.0 kHz
Frame rate : 46.875 FPS (1024 SPF)
Compression mode : Lossy
Stream size : 68.0 MiB (9%)
Title : AAC LC, 48.0 KHz, 128 Kbps, 2 channels.
Language : Russian
Default : Yes
Forced : No
#77Название: Иван Царевич и Серый Волк
Страна: Россия
Жанр: мультфильм, комедия, приключения
Продолжительность: 01:25:58
Год выпуска: 2011
Перевод: Не требуется
Русские субтитры: нет
Навигация по главам: 12 глав

Режиссёр: Владимир Торопчин

Роли озвучивали: Никита Ефремов (Иван), Иван Охлобыстин (царь), Артур Смольянинов (волк), Лия Ахеджакова (Баба Яга), Кристина Асмус (белка), Виктор Сухоруков (первый министр), Сергей Гармаш (Змей Горыныч), Михаил Боярский (ученый кот), Татьяна Бунина (Василиса), Сергей Русскин (Кощей Бессмертный), Елена Шульман (русалка), Константин Бронзит (царь-император)

Описание: Увлекательная история от создателей богатырской трилогии, в которой героев русских народных сказок ждут новые приключения, опасности и забавные ситуации.



Качество: BDRip-AVC
Формат: MKV
Видео: AVC, 908х490 (1.85:1), 23.976 fps, 1090 Kbps.
Аудио: AAC LC, 48.0 KHz, 128 Kbps, 2 channels.
Субтитры: отсутствуют
x264 [info]: frame I:1394 Avg QP:13.88 size: 89874
x264 [info]: frame P:30412 Avg QP:18.12 size: 10717
x264 [info]: frame B:91865 Avg QP:18.95 size: 2738
x264 [info]: consecutive B-frames: 3.3% 3.5% 11.1% 42.8% 17.0% 8.7% 3.1% 1.8% 1.4% 0.9% 0.6% 2.5% 0.6% 0.6% 1.1% 0.7%

General
Unique ID : 191412533101026810547332278618846917718 (0x9000B6821FA20B088A33A57EE5BFF456)
Complete name : Иван Царевич и Серый Волк (2011).mkv
Format : Matroska
Format version : Version 4 / Version 2
File size : 748 MiB
Duration : 1 h 25 min
Overall bit rate : 1 216 kb/s
Movie name : Иван Царевич и Серый Волк (2011)
Encoded date : UTC 2018-03-12 11:29:13
Writing application : mkvmerge v8.1.0 ('Psychedelic Postcard') 64bit
Writing library : libebml v1.3.1 + libmatroska v1.4.2
Video
ID : 1
Format : AVC
Format/Info : Advanced Video Codec
Format profile : High@L4.1
Format settings : CABAC / 12 Ref Frames
Format settings, CABAC : Yes
Format settings, ReFrames : 12 frames
Codec ID : V_MPEG4/ISO/AVC
Duration : 1 h 25 min
Bit rate : 1 090 kb/s
Width : 908 pixels
Height : 490 pixels
Display aspect ratio : 1.85:1
Frame rate mode : Constant
Frame rate : 23.976 (24000/1001) FPS
Color space : YUV
Chroma subsampling : 4:2:0
Bit depth : 8 bits
Scan type : Progressive
Bits/(Pixel*Frame) : 0.102
Stream size : 670 MiB (90%)
Title : Иван Царевич и Серый Волк (2011) By optik.1557
Writing library : x264 core 152 r2851kMod ba24899
Encoding settings : cabac=1 / ref=12 / deblock=1:-3:-2 / analyse=0x3:0x113 / me=umh / subme=10 / psy=1 / fade_compensate=0.00 / psy_rd=1.05:0.01 / mixed_ref=1 / me_range=48 / chroma_me=1 / trellis=2 / 8x8dct=1 / cqm=0 / deadzone=21,11 / fast_pskip=0 / chroma_qp_offset=-3 / threads=6 / lookahead_threads=1 / sliced_threads=0 / nr=0 / decimate=0 / interlaced=0 / bluray_compat=0 / constrained_intra=0 / bframes=15 / b_pyramid=2 / b_adapt=2 / b_bias=0 / direct=3 / weightb=1 / open_gop=0 / weightp=2 / keyint=250 / keyint_min=23 / scenecut=40 / intra_refresh=0 / rc_lookahead=60 / rc=2pass / mbtree=0 / bitrate=1090 / ratetol=1.0 / qcomp=0.70 / qpmin=0 / qpmax=69 / qpstep=4 / cplxblur=20.0 / qblur=0.5 / vbv_maxrate=50000 / vbv_bufsize=62500 / nal_hrd=none / filler=0 / ip_ratio=1.40 / pb_ratio=1.30 / aq=3:0.85
Language : English
Default : Yes
Forced : No
Color range : Limited
Color primaries : BT.709
Transfer characteristics : BT.709
Matrix coefficients : BT.709
Audio
ID : 2
Format : AAC
Format/Info : Advanced Audio Codec
Format profile : HE-AAC / LC
Format settings : Explicit
Codec ID : A_AAC-2
Duration : 1 h 25 min
Bit rate : 124 kb/s
Channel(s) : 2 channels
Channel positions : Front: L R
Sampling rate : 96.0 kHz / 48.0 kHz
Frame rate : 46.875 FPS (1024 SPF)
Compression mode : Lossy
Stream size : 76.3 MiB (10%)
Title : AAC LC, 48.0 KHz, 128 Kbps, 2 channels.
Language : Russian
Default : Yes
Forced : No
Menu
00:00:00.000 : en:Chapter 1
00:08:19.916 : en:Chapter 2
00:15:17.041 : en:Chapter 3
00:22:17.419 : en:Chapter 4
00:29:20.925 : en:Chapter 5
00:36:09.500 : en:Chapter 6
00:45:12.918 : en:Chapter 7
00:53:30.790 : en:Chapter 8
01:00:45.433 : en:Chapter 9
01:06:53.134 : en:Chapter 10
01:14:10.988 : en:Chapter 11
01:21:09.656 : en:Chapter 12
#77Название: Три богатыря на дальних берегах
Страна: Россия
Жанр: Мультфильм, приключения, семейный
Продолжительность: 01:11:18
Год выпуска: 2012
Перевод: Не требуется
Русские субтитры: нет
Навигация по главам: 12 глав

Режиссёр: Константин Феоктистов

Роли озвучивали: Дмитрий Быковский-Ромашов (Илья Муромец), Валерий Соловьев (Добрыня Никитич), Олег Куликович (Алеша Попович), Сергей Маковецкий (князь Киевский), Дмитрий Высоцкий (конь Юлий), Фёдор Бондарчук (барон Курдюк), Елизавета Боярская (Баба Яга), Мария Цветкова-Овсянникова (Алёнушка), Елена Шульман (Настасья), Лия Медведева (Любава), Анатолий Петров (Тихон / Бекет), Наталья Данилова (бабка)

Описание: На этот раз Алеша Попович, Добрыня Никитич и Илья Муромец, благодаря козням коварной Бабы Яги, оказываются за семью морями на острове, на котором живут туземцы и страшный Гомума. В их отсутствие купец Колыван решают вместе с Бабой-Ягой захватить царство и забрать власть у князя Киевского. На помощь незадачливому правителю приходит конь Юлий, а также жены богатырей и их многочисленные родственники. Словом, богатырей и зрителей ждут приключения на дальних берегах, обыкновенные и невероятные.



Качество: BDRip-AVC
Формат: MKV
Видео: AVC, 928x522 (16:9), 23.976 fps, 1335 Kbps.
Аудио: AAC LC, 48.0 KHz, 132 Kbps, 2 channels.
Субтитры: отсутствуют
x264 [info]: frame I:1156 Avg QP:13.16 size: 90299
x264 [info]: frame P:25849 Avg QP:17.42 size: 13295
x264 [info]: frame B:75568 Avg QP:18.44 size: 3517
x264 [info]: consecutive B-frames: 3.5% 3.3% 12.2% 45.8% 15.7% 9.0% 2.3% 1.4% 1.0% 0.6% 0.5% 0.5% 0.4% 2.2% 0.8% 0.8%

General
Unique ID : 202358870816064882509100824175630247676 (0x983CE6A02EF38B758FC78437CA4A66FC)
Complete name : Три богатыря на дальних берегах (2012).mkv
Format : Matroska
Format version : Version 4 / Version 2
File size : 747 MiB
Duration : 1 h 11 min
Overall bit rate : 1 465 kb/s
Movie name : Три богатыря на дальних берегах (2012)
Encoded date : UTC 2018-03-12 21:22:08
Writing application : mkvmerge v8.1.0 ('Psychedelic Postcard') 64bit
Writing library : libebml v1.3.1 + libmatroska v1.4.2
Video
ID : 1
Format : AVC
Format/Info : Advanced Video Codec
Format profile : High@L4.1
Format settings : CABAC / 12 Ref Frames
Format settings, CABAC : Yes
Format settings, ReFrames : 12 frames
Codec ID : V_MPEG4/ISO/AVC
Duration : 1 h 11 min
Bit rate : 1 335 kb/s
Width : 928 pixels
Height : 522 pixels
Display aspect ratio : 16:9
Frame rate mode : Constant
Frame rate : 23.976 (24000/1001) FPS
Color space : YUV
Chroma subsampling : 4:2:0
Bit depth : 8 bits
Scan type : Progressive
Bits/(Pixel*Frame) : 0.115
Stream size : 681 MiB (91%)
Title : Три богатыря на дальних берегах (2012) By optik.1557
Writing library : x264 core 152 r2851kMod ba24899
Encoding settings : cabac=1 / ref=12 / deblock=1:-3:-2 / analyse=0x3:0x113 / me=umh / subme=10 / psy=1 / fade_compensate=0.00 / psy_rd=1.05:0.01 / mixed_ref=1 / me_range=48 / chroma_me=1 / trellis=2 / 8x8dct=1 / cqm=0 / deadzone=21,11 / fast_pskip=0 / chroma_qp_offset=-3 / threads=6 / lookahead_threads=1 / sliced_threads=0 / nr=0 / decimate=0 / interlaced=0 / bluray_compat=0 / constrained_intra=0 / bframes=15 / b_pyramid=2 / b_adapt=2 / b_bias=0 / direct=3 / weightb=1 / open_gop=0 / weightp=2 / keyint=250 / keyint_min=23 / scenecut=40 / intra_refresh=0 / rc_lookahead=60 / rc=2pass / mbtree=0 / bitrate=1335 / ratetol=1.0 / qcomp=0.70 / qpmin=0 / qpmax=69 / qpstep=4 / cplxblur=20.0 / qblur=0.5 / vbv_maxrate=50000 / vbv_bufsize=62500 / nal_hrd=none / filler=0 / ip_ratio=1.40 / pb_ratio=1.30 / aq=3:0.85
Language : Russian
Default : Yes
Forced : No
Color range : Limited
Color primaries : BT.709
Transfer characteristics : BT.709
Matrix coefficients : BT.709
Audio
ID : 2
Format : AAC
Format/Info : Advanced Audio Codec
Format profile : HE-AAC / LC
Format settings : Explicit
Codec ID : A_AAC-2
Duration : 1 h 11 min
Bit rate : 128 kb/s
Channel(s) : 2 channels
Channel positions : Front: L R
Sampling rate : 96.0 kHz / 48.0 kHz
Frame rate : 46.875 FPS (1024 SPF)
Compression mode : Lossy
Stream size : 65.4 MiB (9%)
Title : AAC LC, 48.0 KHz, 132 Kbps, 2 channels.
Language : Russian
Default : Yes
Forced : No
Menu
00:00:00.000 : :Chapter 01
00:05:42.342 : :Chapter 02
00:10:39.597 : :Chapter 03
00:16:36.704 : :Chapter 04
00:24:05.861 : :Chapter 05
00:30:40.004 : :Chapter 06
00:35:16.364 : :Chapter 07
00:42:07.983 : :Chapter 08
00:49:30.759 : :Chapter 09
00:54:38.817 : :Chapter 10
01:00:39.761 : :Chapter 11
01:06:27.233 : :Chapter 12
#77Название: Иван Царевич и Серый Волк 2
Страна: Россия
Жанр: мультфильм, приключения, семейный, сказка
Продолжительность: 01:12:37
Год выпуска: 2013
Перевод: Не требуется
Русские субтитры: есть

Режиссёр: Владимир Торопчин

Роли озвучивали: Никита Ефремов (Иван), Татьяна Бунина (Василиса), Иван Охлобыстин (Царь), Михаил Боярский (Кот Ученый), Ирина Рахманова (Лунная лягушка), Александр Боярский (Волк), Екатерина Гороховская (Наина), Елена Шульман (Русалка), Максим Сергеев, (Черномор)...

Описание: В Тридевятом царстве, где живут наши герои — тишь, да благодать. Иван женился на Василисе, и «жили они долго и счастливо», да не тут-то было. Иван целыми днями пропадает с Волком на службе — укрепляет рубежи и оборонную мощь, мечтает перевести стрелки часов на семь часов назад, чтобы меньше спать, и больше работать. А Василисе — скучно, как всем девушкам, ей хочется романтики, ну, такой, как в сказках. И тогда она решает организовать свое похищение… Однако, когда такое бывало, что в сказках все получалось так, как задумывалось?



Качество: BDRip-AVC
Формат: MKV
Видео: AVC, 960x540 (16:9), 24.000 fps, 1310 Kbps.
Аудио: AAC LC, 48.0 KHz, 132 Kbps, 2 channels.
Субтитры: Русские (Полные)
#77x264 [info]: frame I:1169 Avg QP:14.12 size: 89917
x264 [info]: frame P:25901 Avg QP:17.77 size: 12582
x264 [info]: frame B:77516 Avg QP:18.86 size: 3644
x264 [info]: consecutive B-frames: 3.3% 4.3% 9.5% 43.3% 15.6% 12.7% 2.4% 1.6% 0.8% 3.9% 0.5% 0.4% 0.2% 0.8% 0.2% 0.4%

General
Unique ID : 247469514410843609105459269260052642503 (0xBA2CE51271A1ED19A133207EEB55BAC7)
Complete name : Иван Царевич и Серый Волк 2 (2013).mkv
Format : Matroska
Format version : Version 4 / Version 2
File size : 748 MiB
Duration : 1 h 12 min
Overall bit rate : 1 440 kb/s
Movie name : Иван Царевич и Серый Волк 2 (2013)
Encoded date : UTC 2018-03-13 08:32:19
Writing application : mkvmerge v8.1.0 ('Psychedelic Postcard') 64bit
Writing library : libebml v1.3.1 + libmatroska v1.4.2
Video
ID : 1
Format : AVC
Format/Info : Advanced Video Codec
Format profile : High@L4.1
Format settings : CABAC / 12 Ref Frames
Format settings, CABAC : Yes
Format settings, ReFrames : 12 frames
Codec ID : V_MPEG4/ISO/AVC
Duration : 1 h 12 min
Bit rate : 1 310 kb/s
Width : 960 pixels
Height : 540 pixels
Display aspect ratio : 16:9
Frame rate mode : Constant
Frame rate : 24.000 FPS
Color space : YUV
Chroma subsampling : 4:2:0
Bit depth : 8 bits
Scan type : Progressive
Bits/(Pixel*Frame) : 0.105
Stream size : 680 MiB (91%)
Title : Иван Царевич и Серый Волк 2 (2013) By optik.1557
Writing library : x264 core 152 r2851kMod ba24899
Encoding settings : cabac=1 / ref=12 / deblock=1:-3:-2 / analyse=0x3:0x113 / me=umh / subme=10 / psy=1 / fade_compensate=0.00 / psy_rd=1.05:0.01 / mixed_ref=1 / me_range=48 / chroma_me=1 / trellis=2 / 8x8dct=1 / cqm=0 / deadzone=21,11 / fast_pskip=0 / chroma_qp_offset=-3 / threads=6 / lookahead_threads=1 / sliced_threads=0 / nr=0 / decimate=0 / interlaced=0 / bluray_compat=0 / constrained_intra=0 / bframes=15 / b_pyramid=2 / b_adapt=2 / b_bias=0 / direct=3 / weightb=1 / open_gop=0 / weightp=2 / keyint=250 / keyint_min=23 / scenecut=40 / intra_refresh=0 / rc_lookahead=60 / rc=2pass / mbtree=0 / bitrate=1310 / ratetol=1.0 / qcomp=0.70 / qpmin=0 / qpmax=69 / qpstep=4 / cplxblur=20.0 / qblur=0.5 / vbv_maxrate=50000 / vbv_bufsize=62500 / nal_hrd=none / filler=0 / ip_ratio=1.40 / pb_ratio=1.30 / aq=3:0.85
Language : Russian
Default : Yes
Forced : No
Color range : Limited
Color primaries : BT.709
Transfer characteristics : BT.709
Matrix coefficients : BT.709
Audio
ID : 2
Format : AAC
Format/Info : Advanced Audio Codec
Format profile : HE-AAC / LC
Format settings : Explicit
Codec ID : A_AAC-2
Duration : 1 h 12 min
Bit rate : 128 kb/s
Channel(s) : 2 channels
Channel positions : Front: L R
Sampling rate : 96.0 kHz / 48.0 kHz
Frame rate : 46.875 FPS (1024 SPF)
Compression mode : Lossy
Stream size : 66.6 MiB (9%)
Title : AAC LC, 48.0 KHz, 132 Kbps, 2 channels.
Language : Russian
Default : Yes
Forced : No
Text
ID : 3
Format : UTF-8
Codec ID : S_TEXT/UTF8
Codec ID/Info : UTF-8 Plain Text
Duration : 1 h 10 min
Bit rate : 103 b/s
Count of elements : 881
Stream size : 53.6 KiB (0%)
Language : Russian
Default : No
Forced : No
Menu
00:00:00.000 : :Chapter 01
00:05:42.342 : :Chapter 02
00:10:39.597 : :Chapter 03
00:16:36.704 : :Chapter 04
00:24:05.861 : :Chapter 05
00:30:40.004 : :Chapter 06
00:35:16.364 : :Chapter 07
00:42:07.983 : :Chapter 08
00:49:30.759 : :Chapter 09
00:54:38.817 : :Chapter 10
01:00:39.761 : :Chapter 11
01:06:27.233 : :Chapter 12
#77Название: Три богатыря: Ход конем
Страна: Россия
Жанр: мультфильм, комедия, приключения, фэнтези
Продолжительность: 01:14:42
Год выпуска: 2014
Перевод: Не требуется
Русские субтитры: нет
Навигация по главам: 8 глав

Режиссёр: Константин Феоктистов

Роли озвучивали: Сергей Маковецкий (князь Киевский), Дмитрий Высоцкий (конь Юлий), Дмитрий Нагиев (дуб), Олег Куликович (Алеша Попович), Валерий Соловьев (Добрыня Никитич), Дмитрий Быковский-Ромашов (Илья Муромец), Гоша Куценко (Потаня), Наргиз Закирова (цыганка), Анатолий Петров (Тихон), Лия Медведева (Любава), Мария Цветкова-Овсянникова (Алёнушка), Елена Шульман (Настасья)...

Описание: Придворный конь Гай Юлий Цезарь на свою беду подслушивает разговор бояр и узнает о заговоре против князя. Что же делать? Защитить-то князя некому! Богатыри далеко — ловят разбойника Потаню, Горыныч в отпуске, войско на учениях… Но если плохие парни собираются захватить мир, то кому-то же надо его спасти? Кто же он, настоящий герой, который придет на помощь? Конечно, конь Юлий! Настоящий стратег и «великий комбинатор». Он непременно всех спасет, а если не спасет, то хотя бы постарается. Главное, чтобы операция по спасению мира не обернулась полной катастрофой.



Качество: BDRip-AVC
Формат: MKV
Видео: AVC, 950х520 (1.85:1), 24.000 fps, 1270 Kbps.
Аудио: AAC LC, 48.0 KHz, 132 Kbps, 2 channels.
Субтитры: отсутствуют
x264 [info]: frame I:1304 Avg QP:14.06 size: 78486
x264 [info]: frame P:27893 Avg QP:17.48 size: 11840
x264 [info]: frame B:78392 Avg QP:19.31 size: 3555
x264 [info]: consecutive B-frames: 4.1% 4.1% 10.7% 47.3% 15.4% 9.0% 1.9% 1.1% 0.5% 3.7% 0.4% 0.3% 0.3% 0.4% 0.3% 0.5%

General
Unique ID : 252629090910410025811943790238901403529 (0xBE0E97D573B37B279BAABC6FDD9EFF89)
Complete name : Три богатыря. Ход конем (2014).mkv
Format : Matroska
Format version : Version 4 / Version 2
File size : 748 MiB
Duration : 1 h 14 min
Overall bit rate : 1 400 kb/s
Movie name : Три богатыря: Ход конем (2014)
Encoded date : UTC 2018-02-21 12:13:05
Writing application : mkvmerge v8.1.0 ('Psychedelic Postcard') 64bit
Writing library : libebml v1.3.1 + libmatroska v1.4.2
Video
ID : 1
Format : AVC
Format/Info : Advanced Video Codec
Format profile : High@L4
Format settings : CABAC / 12 Ref Frames
Format settings, CABAC : Yes
Format settings, ReFrames : 12 frames
Codec ID : V_MPEG4/ISO/AVC
Duration : 1 h 14 min
Bit rate : 1 270 kb/s
Width : 960 pixels
Height : 520 pixels
Display aspect ratio : 1.85:1
Frame rate mode : Constant
Frame rate : 24.000 FPS
Color space : YUV
Chroma subsampling : 4:2:0
Bit depth : 8 bits
Scan type : Progressive
Bits/(Pixel*Frame) : 0.106
Stream size : 678 MiB (91%)
Title : Три богатыря. Ход конем (2014) By optik.1557
Writing library : x264 core 144 r2525kMod 40bb568
Encoding settings : cabac=1 / ref=12 / deblock=1:-2:-1 / analyse=0x3:0x133 / me=umh / subme=10 / psy=1 / fade_compensate=0.00 / psy_rd=1.05:0.03 / mixed_ref=1 / me_range=48 / chroma_me=1 / trellis=2 / 8x8dct=1 / cqm=0 / deadzone=21,11 / fast_pskip=0 / chroma_qp_offset=-3 / threads=6 / lookahead_threads=1 / sliced_threads=0 / nr=0 / decimate=1 / interlaced=0 / bluray_compat=0 / constrained_intra=0 / fgo=0 / bframes=15 / b_pyramid=2 / b_adapt=2 / b_bias=0 / direct=3 / weightb=1 / open_gop=0 / weightp=2 / keyint=250 / keyint_min=23 / scenecut=40 / intra_refresh=0 / rc_lookahead=60 / rc=2pass / mbtree=0 / bitrate=1270 / ratetol=1.0 / qcomp=0.60 / qpmin=0 / qpmax=69 / qpstep=4 / cplxblur=20.0 / qblur=0.5 / vbv_maxrate=20000 / vbv_bufsize=25000 / nal_hrd=none / filler=0 / ip_ratio=1.40 / pb_ratio=1.30 / aq=2:0.90 / zones=102552,107589,q=30
Language : Russian
Default : Yes
Forced : No
Audio
ID : 2
Format : AAC
Format/Info : Advanced Audio Codec
Format profile : LC
Codec ID : A_AAC-2
Duration : 1 h 14 min
Bit rate : 128 kb/s
Channel(s) : 2 channels
Channel positions : Front: L R
Sampling rate : 48.0 kHz
Frame rate : 46.875 FPS (1024 SPF)
Compression mode : Lossy
Delay relative to video : 9 ms
Stream size : 68.5 MiB (9%)
Title : AAC LC, 48.0 KHz, 132 Kbps, 2 channels.
Language : Russian
Default : Yes
Forced : No
Menu
00:00:00.000 : ru:Chapter 1
00:09:15.916 : ru:Chapter 2
00:18:48.000 : ru:Chapter 3
00:27:35.750 : ru:Chapter 4
00:37:23.791 : ru:Chapter 5
00:47:10.083 : ru:Chapter 6
00:54:14.791 : ru:Chapter 7
01:03:36.416 : ru:Chapter 8
#77Название: Иван Царевич и Серый Волк 3
Страна: Россия
Жанр: мультфильм, приключения, семейный
Продолжительность: 01:17:06
Год выпуска: 2015
Перевод: Не требуется
Русские субтитры: нет
Навигация по главам: 12 глав

Режиссёр: Дарина Шмидт

Роли озвучивали: Никита Ефремов (Иван Царевич), Иван Охлобыстин (Царь), Михаил Боярский (Кот), Александр Боярский (Волк), Татьяна Бунина (Василиса), Михаил Хрусталев (Пугало), Дмитрий Высоцкий (Тонкий), Олег Куликович (Толстый), Анатолий Петров (Соловей), Роман Никитин (Кеша), Константин Бронзит (Щука)...

Описание: Царь Тридевятого царства, в честь своего 150-летия решил, что с него хватит — пора на заслуженный отдых. «Я устал. Я ухожу», — заявил самодержец и с удочкой и ведёрком удалился в деревенскую глушь. А оберегать государство остались Иван с Серым Волком. Вот только Василиса, жена Ивана, заявила, что свадебного путешествия у неё не было, заграницу она не видела, «постить» в инстаграм решительно нечего и вообще.
Иван спорить не стал, а вместе с Василисой, Котом — ученым и Серым Волком, погрузился на ковер-самолет и отправился в путь. А за главного в стране герои оставили самое обычное огородное пугало… Но пока компания шаталась по Миланам и Парижам, Пугало ожило и начало наводить свои порядки в Тридевятом царстве…



Качество: BDRip-AVC
Формат: MKV
Видео: AVC, 928х522 (16:9), 24.000 fps, 1230 Kbps.
Аудио: AAC LC, 48.0 KHz, 128 Kbps, 2 channels.
Субтитры: отсутствуют
x264 [info]: frame I:1100 Avg QP:12.98 size: 78179
x264 [info]: frame P:27591 Avg QP:17.35 size: 12440
x264 [info]: frame B:82349 Avg QP:17.92 size: 3425
x264 [info]: consecutive B-frames: 4.8% 4.7% 9.9% 35.9% 13.5% 10.0% 3.9% 2.3% 1.9% 1.5% 1.8% 1.8% 0.8% 1.1% 1.0% 1.0%

General
Unique ID : 231382400179974344633698254945935859340 (0xAE12A11A87ECF595BD657059526E9E8C)
Complete name : Иван Царевич и Серый Волк 3 (2015).mkv
Format : Matroska
Format version : Version 4 / Version 2
File size : 748 MiB
Duration : 1 h 17 min
Overall bit rate : 1 356 kb/s
Movie name : Иван Царевич и Серый Волк 3 (2015)
Encoded date : UTC 2018-02-21 12:17:07
Writing application : mkvmerge v8.1.0 ('Psychedelic Postcard') 64bit
Writing library : libebml v1.3.1 + libmatroska v1.4.2
Video
ID : 1
Format : AVC
Format/Info : Advanced Video Codec
Format profile : High@L4
Format settings : CABAC / 12 Ref Frames
Format settings, CABAC : Yes
Format settings, ReFrames : 12 frames
Codec ID : V_MPEG4/ISO/AVC
Duration : 1 h 17 min
Bit rate : 1 230 kb/s
Width : 928 pixels
Height : 522 pixels
Display aspect ratio : 16:9
Frame rate mode : Constant
Frame rate : 24.000 FPS
Color space : YUV
Chroma subsampling : 4:2:0
Bit depth : 8 bits
Scan type : Progressive
Bits/(Pixel*Frame) : 0.106
Stream size : 678 MiB (91%)
Title : Иван Царевич и Серый Волк 3 (2015) By optik.1557
Writing library : x264 core 148 r2692kMod 64f4e24
Encoding settings : cabac=1 / ref=12 / deblock=1:-3:-2 / analyse=0x3:0x133 / me=umh / subme=10 / psy=1 / fade_compensate=0.00 / psy_rd=1.05:0.03 / mixed_ref=1 / me_range=48 / chroma_me=1 / trellis=2 / 8x8dct=1 / cqm=0 / deadzone=21,11 / fast_pskip=0 / chroma_qp_offset=-3 / threads=6 / lookahead_threads=1 / sliced_threads=0 / nr=0 / decimate=0 / interlaced=0 / bluray_compat=0 / constrained_intra=0 / fgo=0 / bframes=15 / b_pyramid=2 / b_adapt=2 / b_bias=0 / direct=3 / weightb=1 / open_gop=0 / weightp=2 / keyint=250 / keyint_min=23 / scenecut=40 / intra_refresh=0 / rc_lookahead=60 / rc=2pass / mbtree=0 / bitrate=1230 / ratetol=1.0 / qcomp=0.60 / qpmin=0 / qpmax=69 / qpstep=4 / cplxblur=20.0 / qblur=0.5 / vbv_maxrate=20000 / vbv_bufsize=25000 / nal_hrd=none / filler=0 / ip_ratio=1.40 / pb_ratio=1.30 / aq=2:0.90
Language : Russian
Default : Yes
Forced : No
Color range : Limited
Color primaries : BT.709
Transfer characteristics : BT.709
Matrix coefficients : BT.709
Audio
ID : 2
Format : AAC
Format/Info : Advanced Audio Codec
Format profile : LC
Codec ID : A_AAC-2
Duration : 1 h 17 min
Bit rate : 124 kb/s
Channel(s) : 2 channels
Channel positions : Front: L R
Sampling rate : 48.0 kHz
Frame rate : 46.875 FPS (1024 SPF)
Compression mode : Lossy
Delay relative to video : 9 ms
Stream size : 68.6 MiB (9%)
Title : AAC LC, 48.0 KHz, 128 Kbps, 2 channels.
Language : Russian
Default : Yes
Forced : No
Menu
00:00:00.000 : en:00:00:00.000
00:06:37.958 : en:00:06:37.958
00:10:39.375 : en:00:10:39.375
00:15:50.083 : en:00:15:50.083
00:23:38.667 : en:00:23:38.667
00:31:42.042 : en:00:31:42.042
00:37:36.667 : en:00:37:36.667
00:43:48.208 : en:00:43:48.208
00:51:43.583 : en:00:51:43.583
00:55:48.708 : en:00:55:48.708
01:01:21.250 : en:01:01:21.250
01:11:35.625 : en:01:11:35.625
#77Название: Три богатыря и Морской царь
Страна: Россия
Жанр: мультфильм, комедия, приключения
Продолжительность: 01:13:37
Год выпуска: 2016
Перевод: Не требуется
Русские субтитры: нет

Режиссёр: Константин Феоктистов

Роли озвучивали: Сергей Маковецкий, Дмитрий Высоцкий, Олег Куликович, Валерий Соловьёв, Дмитрий Быковский-Ромашов, Елена Шульман, Лия Медведева, Мария Цветкова-Овсянникова...

Описание: У богатырей семейные неурядицы. Чтобы развеяться, они решают по-быстрому сгонять в Китай за зубом дракона, символом мудрости и силы. В это же время князь Киевский отправляется на прогулку вместе с конем Юлием за сокровищами морского царя, чтобы пополнить казну и «залатать бюджет». Да вот только морской царь решил жениться и для этого утопил Киев. И как теперь быть? Что поможет нашим героям? Дружба, смелость и, конечно, любовь.

| КиноПоиск | Сэмпл |

Качество: WEB-DLRip-AVC
Формат: MKV
Видео: AVC, 816х442 (1.85:1), 25.000 fps, 1288 Kbps.
Аудио: AAC LC, 48.0 KHz, 132 Kbps, 2 channels.
Субтитры: отсутствуют
x264 [info]: frame I:1369 Avg QP:15.88 size: 60035
x264 [info]: frame P:29044 Avg QP:19.59 size: 11950
x264 [info]: frame B:80022 Avg QP:21.23 size: 3522
x264 [info]: consecutive B-frames: 3.2% 5.1% 6.3% 65.8% 7.1% 6.0% 3.4% 0.9% 0.9% 0.4% 0.1% 0.2% 0.1% 0.1% 0.1% 0.2%

General
Unique ID : 205259849127475336985874360098265532256 (0x9A6B9BE6362F17A59491C2C0CBA88760)
Complete name : Три богатыря и Морской царь (2016).mkv
Format : Matroska
Format version : Version 4 / Version 2
File size : 747 MiB
Duration : 1 h 13 min
Overall bit rate : 1 418 kb/s
Movie name : Три богатыря и Морской царь (2016)
Encoded date : UTC 2018-02-22 09:57:57
Writing application : mkvmerge v8.1.0 ('Psychedelic Postcard') 64bit
Writing library : libebml v1.3.1 + libmatroska v1.4.2
Video
ID : 1
Format : AVC
Format/Info : Advanced Video Codec
Format profile : High@L4.1
Format settings : CABAC / 13 Ref Frames
Format settings, CABAC : Yes
Format settings, ReFrames : 13 frames
Codec ID : V_MPEG4/ISO/AVC
Duration : 1 h 13 min
Bit rate : 1 288 kb/s
Width : 816 pixels
Height : 442 pixels
Display aspect ratio : 1.85:1
Frame rate mode : Constant
Frame rate : 25.000 FPS
Color space : YUV
Chroma subsampling : 4:2:0
Bit depth : 8 bits
Scan type : Progressive
Bits/(Pixel*Frame) : 0.143
Stream size : 678 MiB (91%)
Title : Три богатыря и Морской царь (2016) By optik.1557
Writing library : x264 core 152 r2851kMod ba24899
Encoding settings : cabac=1 / ref=13 / deblock=1:-3:-2 / analyse=0x3:0x113 / me=umh / subme=10 / psy=1 / fade_compensate=0.00 / psy_rd=1.05:0.01 / mixed_ref=1 / me_range=48 / chroma_me=1 / trellis=2 / 8x8dct=1 / cqm=0 / deadzone=21,11 / fast_pskip=0 / chroma_qp_offset=-3 / threads=6 / lookahead_threads=1 / sliced_threads=0 / nr=0 / decimate=0 / interlaced=0 / bluray_compat=0 / constrained_intra=0 / bframes=15 / b_pyramid=2 / b_adapt=2 / b_bias=0 / direct=3 / weightb=1 / open_gop=0 / weightp=2 / keyint=250 / keyint_min=25 / scenecut=40 / intra_refresh=0 / rc_lookahead=60 / rc=2pass / mbtree=0 / bitrate=1288 / ratetol=1.0 / qcomp=0.70 / qpmin=0 / qpmax=69 / qpstep=4 / cplxblur=20.0 / qblur=0.5 / vbv_maxrate=50000 / vbv_bufsize=62500 / nal_hrd=none / filler=0 / ip_ratio=1.40 / pb_ratio=1.30 / aq=3:0.85
Language : Russian
Default : Yes
Forced : No
Color range : Limited
Color primaries : BT.709
Transfer characteristics : BT.709
Matrix coefficients : BT.709
Audio
ID : 2
Format : AAC
Format/Info : Advanced Audio Codec
Format profile : LC
Codec ID : A_AAC-2
Duration : 1 h 13 min
Bit rate : 128 kb/s
Channel(s) : 2 channels
Channel positions : Front: L R
Sampling rate : 48.0 kHz
Frame rate : 46.875 FPS (1024 SPF)
Compression mode : Lossy
Delay relative to video : 9 ms
Stream size : 67.4 MiB (9%)
Title : AAC LC, 48.0 KHz, 132 Kbps, 2 channels.
Language : Russian
Default : Yes
Forced : No
Menu
00:00:00.000 : en:Глава 1
00:05:35.600 : en:Глава 2
00:12:04.840 : en:Глава 3
00:19:11.360 : en:Глава 4
00:25:12.680 : en:Глава 5
00:30:19.080 : en:Глава 6
00:36:18.680 : en:Глава 7
00:41:13.440 : en:Глава 8
00:45:06.240 : en:Глава 9
00:50:40.040 : en:Глава 10
00:58:24.600 : en:Глава 11
01:03:35.880 : en:Глава 12
#77Название: Три богатыря и принцесса Египта
Страна: Россия
Жанр: мультфильм, приключения, семейный, фэнтези
Продолжительность: 01:08:43
Год выпуска: 2017
Перевод: Не требуется
Русские субтитры: нет

Режиссёр: Константин Феоктистов

Роли озвучивали: Олег Куликович, Валерий Соловьёв, Дмитрий Быковский-Ромашов, Сергей Маковецкий, Дмитрий Высоцкий, Александр Быковский, Елена Шульман, Лия Медведева, Мария Цветкова-Овсянникова, Анатолий Петров...

Описание: В новогоднюю ночь, в то время, как Князь готовится произнести торжественную речь, а Юлий распаковывает подарки и следит за приготовлением праздничного стола, богатыри едут в гости к Алеше, и встречают там странного товарища по имени Дурило. Оказывается, это тринадцатый месяц, который никому особенно не нужен, и который пытается осуществить свое заветное желание — стать самым главным месяцем в году. Только и надо ему, что притвориться Дедом Морозом, показать доверчивому Алеше пару фокусов, подружиться с богатырями и оказаться в Египте — стране фараонов и древних пирамид. А дальше — пирамиды, заклинание, Древний огонь — и дело в шляпе! Но не так-то просто осуществить свое коварное желание, когда на пути у тебя встают не только три богатыри, но и их жены, Князь и Юлий, Змей Горыныч и Дед Мороз и даже — сама принцесса Нефертити!

| КиноПоиск | Сэмпл |

Качество: WEB-DLRip-AVC
Формат: MKV
Видео: AVC, 864x486 (16:9), 25.000 fps, 1392 Kbps.
Аудио: AAC LC, 48.0 KHz, 132 Kbps, 2 channels.
Субтитры: отсутствуют
x264 [info]: frame I:1246 Avg QP:15.26 size: 54670
x264 [info]: frame P:27371 Avg QP:19.46 size: 12653
x264 [info]: frame B:74458 Avg QP:21.11 size: 4068
x264 [info]: consecutive B-frames: 3.5% 5.0% 6.3% 66.9% 7.4% 5.9% 0.9% 1.1% 0.4% 0.3% 0.2% 1.2% 0.1% 0.1% 0.2% 0.6%

General
Unique ID : 182847991863420130607004347651182008818 (0x898F3E06114AE2439597B1115BAB99F2)
Complete name : Три богатыря и принцесса Египта (2017).mkv
Format : Matroska
Format version : Version 4 / Version 2
File size : 748 MiB
Duration : 1 h 8 min
Overall bit rate : 1 522 kb/s
Movie name : Три богатыря и принцесса Египта (2017)
Encoded date : UTC 2018-02-23 05:24:35
Writing application : mkvmerge v8.1.0 ('Psychedelic Postcard') 64bit
Writing library : libebml v1.3.1 + libmatroska v1.4.2
Video
ID : 1
Format : AVC
Format/Info : Advanced Video Codec
Format profile : High@L4.1
Format settings : CABAC / 12 Ref Frames
Format settings, CABAC : Yes
Format settings, ReFrames : 12 frames
Codec ID : V_MPEG4/ISO/AVC
Duration : 1 h 8 min
Bit rate : 1 392 kb/s
Width : 864 pixels
Height : 486 pixels
Display aspect ratio : 16:9
Frame rate mode : Constant
Frame rate : 25.000 FPS
Color space : YUV
Chroma subsampling : 4:2:0
Bit depth : 8 bits
Scan type : Progressive
Bits/(Pixel*Frame) : 0.133
Stream size : 684 MiB (91%)
Title : Три богатыря и принцесса Египта (2017) By optik.1557
Writing library : x264 core 152 r2851kMod ba24899
Encoding settings : cabac=1 / ref=12 / deblock=1:-3:-2 / analyse=0x3:0x113 / me=umh / subme=10 / psy=1 / fade_compensate=0.00 / psy_rd=1.05:0.01 / mixed_ref=1 / me_range=48 / chroma_me=1 / trellis=2 / 8x8dct=1 / cqm=0 / deadzone=21,11 / fast_pskip=0 / chroma_qp_offset=-3 / threads=6 / lookahead_threads=1 / sliced_threads=0 / nr=0 / decimate=0 / interlaced=0 / bluray_compat=0 / constrained_intra=0 / bframes=15 / b_pyramid=2 / b_adapt=2 / b_bias=0 / direct=3 / weightb=1 / open_gop=0 / weightp=2 / keyint=250 / keyint_min=25 / scenecut=40 / intra_refresh=0 / rc_lookahead=60 / rc=2pass / mbtree=0 / bitrate=1392 / ratetol=1.0 / qcomp=0.70 / qpmin=0 / qpmax=69 / qpstep=4 / cplxblur=20.0 / qblur=0.5 / vbv_maxrate=50000 / vbv_bufsize=62500 / nal_hrd=none / filler=0 / ip_ratio=1.40 / pb_ratio=1.30 / aq=3:0.83
Language : Russian
Default : Yes
Forced : No
Color range : Limited
Color primaries : BT.709
Transfer characteristics : BT.709
Matrix coefficients : BT.709
Audio
ID : 2
Format : AAC
Format/Info : Advanced Audio Codec
Format profile : LC
Codec ID : A_AAC-2
Duration : 1 h 8 min
Bit rate : 128 kb/s
Channel(s) : 2 channels
Channel positions : Front: L R
Sampling rate : 48.0 kHz
Frame rate : 46.875 FPS (1024 SPF)
Compression mode : Lossy
Delay relative to video : 9 ms
Stream size : 63.0 MiB (8%)
Title : AAC LC, 48.0 KHz, 132 Kbps, 2 channels.
Language : Russian
Default : Yes
Forced : No
Menu
00:00:00.000 : en:Глава 1
00:07:28.280 : en:Глава 2
00:12:39.720 : en:Глава 3
00:17:31.400 : en:Глава 4
00:23:15.800 : en:Глава 5
00:28:30.840 : en:Глава 6
00:32:41.920 : en:Глава 7
00:37:37.520 : en:Глава 8
00:42:24.320 : en:Глава 9
00:46:54.720 : en:Глава 10
00:51:00.120 : en:Глава 11
00:55:35.760 : en:Глава 12
00:59:06.800 : en:Глава 13
 
Не забывайте говорить Спасибо. Не уходите с раздачи!   
Торрент: Зарегистрирован [14 мар 2018, 00:30] Для скачивания .torrent
необходима регистрация
Или скачать с помощью
MediaGet
Статус:
Проверен
 
.torrent скачан: 0 раз
Хэш: 71e7d1a14b7a6cbd7ee679f21d05a887082d5e40
Размер: 8.03 ГБ (8 625 018 226 байт)
Стать Автором раздачи
 
 
Раздал: 0 байт
Скачал: 0 байт
Ратио: Inf.
Сообщения: 470941
Зарегистрирован: 17 апр 2014, 13:57


  • Похожие торренты
    Ответы
    Просмотры
    Последнее сообщение

Вернуться в Отечественные полнометражные мультфильмы

Ресурс не предоставляет электронные версии произведений, а занимается лишь коллекционированием и каталогизацией ссылок, присылаемых и публикуемых на форуме нашими читателями. Если вы являетесь правообладателем какого-либо представленного материала и не желаете чтобы ссылка на него находилась в нашем каталоге, свяжитесь с нами и мы незамедлительно удалим её. Файлы для обмена на трекере предоставлены пользователями сайта, и администрация не несёт ответственности за их содержание. Просьба не заливать файлы, защищенные авторскими правами, а также файлы нелегального содержания!
cron