Презрение / Le mepris / Contempt (Жан-Люк Годар) [1963, Франция, драма, BDRemux 1080p] 4x MVO + Sub Rus, Eng + Original Fre

 
 Статистика раздачи 
Размер: 24.56 ГБ   |  Зарегистрирован: 13 мар 2018, 22:12   |   .torrent скачан: 0 раз
Сидеров: 1  [ 0 байт/сек ]     Личеров: 0  [ 0 байт/сек ]  
  

Презрение / Le mepris / Contempt (Жан-Люк Годар) [1963, Франция, драма, BDRemux 1080p] 4x MVO + Sub Rus, Eng + Original Fre

Сообщение Nakazhu » 13 мар 2018, 22:12

Презрение / Le mepris / Contempt
Страна: Франция
Студия: Les Films Concordia
Жанр: драма
Год выпуска: 1963
Продолжительность: 01:43:15
Перевод: Профессиональный (многоголосый закадровый) DVD Магия
Перевод 2: Профессиональный (многоголосый закадровый) Видеоимпульс
Перевод 3: Профессиональный (многоголосый закадровый) Cinema Prestige
Перевод 4: Профессиональный (многоголосый закадровый) СВ-Дубль
Субтитры: русские, английские
Оригинальная аудиодорожка: французская
Режиссер: Жан-Люк Годар
В ролях: Брижит Бардо, Мишель Пикколи, Джек Пэланс, Джорджия Молл, Фриц Ланг, Рауль Кутар, Жан-Люк Годар, Линда Верас
Описание: На Капри снимается исторический фильм об Одиссее и Пенелопе. Французский сценарист Поль постоянно ревнует свою жену Камиллу к американскому продюсеру Джереми Прокошу. Она же на эту опеку и зависимость реагирует «презрением».

Сэмпл: https://yadi.sk/i/CmJgLHH23TLNNe
Тип релиза: BDRemux 1080p
Контейнер: MKV
Видео: MPEG-4 AVC / 31589 kbps / 1920x1080 / 24 fps
Аудио 1: Russian AC3 / 48.0 KHz / 2.0 / 192 kbps - СВ-Дубль
Аудио 2: Russian AC3 / 48.0 KHz / 2.0 / 192 kbps - DVD Магия
Аудио 3: Russian AC3 / 48.0 KHz / 2.0 / 192 kbps - Видеоимпульс
Аудио 4: Russian DTS-HD MA 2.0, 48 kHz, 960 kbps, 16-bit (DTS Core: 2.0, 48 kHz, 768 kbps, 16-bit) - Cinema Prestige
Аудио 5: French  DTS-HD MA 2.0, 48 kHz, 933 kbps, 16-bit (DTS Core: 2.0, 48 kHz, 768 kbps, 16-bit)
Формат субтитров: softsub (SRT)
Главы: есть
General
Unique ID : 336876824269135501095137716216843873089 (0xFD701DC8A7A629D155650B98E5062B41)
Complete name : C:\Videos\Презрение-Le mepris(1963,BDRemux1080p).mkv
Format : Matroska
Format version : Version 4 / Version 2
File size : 24.6 GiB
Duration : 1 h 43 min
Overall bit rate mode : Variable
Overall bit rate : 34.1 Mb/s
Movie name : Презрение / / Le mépris (1963)
Encoded date : UTC 2018-03-13 17:54:03
Writing application : mkvmerge v21.0.0 ('Tardigrades Will Inherit The Earth') 32-bit
Writing library : libebml v1.3.5 + libmatroska v1.4.8
Cover : Yes
Attachments : cover.jpg
Video
ID : 1
Format : AVC
Format/Info : Advanced Video Codec
Format profile : High@L4.1
Format settings : CABAC / 2 Ref Frames
Format settings, CABAC : Yes
Format settings, ReFrames : 2 frames
Format settings, GOP : M=1, N=10
Codec ID : V_MPEG4/ISO/AVC
Duration : 1 h 43 min
Bit rate mode : Variable
Bit rate : 31.6 Mb/s
Width : 1 920 pixels
Height : 1 080 pixels
Display aspect ratio : 16:9
Frame rate mode : Constant
Frame rate : 24.000 FPS
Color space : YUV
Chroma subsampling : 4:2:0
Bit depth : 8 bits
Scan type : Progressive
Bits/(Pixel*Frame) : 0.635
Stream size : 22.8 GiB (93%)
Default : Yes
Forced : No
Audio #1
ID : 2
Format : AC-3
Format/Info : Audio Coding 3
Codec ID : A_AC3
Duration : 1 h 43 min
Bit rate mode : Constant
Bit rate : 192 kb/s
Channel(s) : 2 channels
Channel positions : Front: L R
Sampling rate : 48.0 kHz
Frame rate : 31.250 FPS (1536 SPF)
Bit depth : 16 bits
Compression mode : Lossy
Stream size : 142 MiB (1%)
Title : MVO - СВ-Дубль
Language : Russian
Service kind : Complete Main
Default : Yes
Forced : No
Audio #2
ID : 3
Format : AC-3
Format/Info : Audio Coding 3
Codec ID : A_AC3
Duration : 1 h 43 min
Bit rate mode : Constant
Bit rate : 192 kb/s
Channel(s) : 2 channels
Channel positions : Front: L R
Sampling rate : 48.0 kHz
Frame rate : 31.250 FPS (1536 SPF)
Bit depth : 16 bits
Compression mode : Lossy
Stream size : 142 MiB (1%)
Title : MVO - DVD Магия
Language : Russian
Service kind : Complete Main
Default : No
Forced : No
Audio #3
ID : 4
Format : AC-3
Format/Info : Audio Coding 3
Codec ID : A_AC3
Duration : 1 h 43 min
Bit rate mode : Constant
Bit rate : 192 kb/s
Channel(s) : 2 channels
Channel positions : Front: L R
Sampling rate : 48.0 kHz
Frame rate : 31.250 FPS (1536 SPF)
Bit depth : 16 bits
Compression mode : Lossy
Stream size : 142 MiB (1%)
Title : MVO - Видеоимпульс
Language : Russian
Service kind : Complete Main
Default : No
Forced : No
Audio #4
ID : 5
Format : DTS
Format/Info : Digital Theater Systems
Format profile : MA / Core
Codec ID : A_DTS
Duration : 1 h 43 min
Bit rate mode : Variable / Constant
Bit rate : 960 kb/s / 768 kb/s
Channel(s) : 2 channels
Channel positions : Front: L R
Sampling rate : 48.0 kHz
Frame rate : 93.750 FPS (512 SPF)
Bit depth : 16 bits
Compression mode : Lossless / Lossy
Stream size : 705 MiB (3%)
Title : MVO - Cinema Prestige
Language : Russian
Default : No
Forced : No
Audio #5
ID : 6
Format : DTS
Format/Info : Digital Theater Systems
Format profile : MA / Core
Codec ID : A_DTS
Duration : 1 h 43 min
Bit rate mode : Variable / Constant
Bit rate : 933 kb/s / 768 kb/s
Channel(s) : 2 channels
Channel positions : Front: L R
Sampling rate : 48.0 kHz
Frame rate : 93.750 FPS (512 SPF)
Bit depth : 16 bits
Compression mode : Lossless / Lossy
Stream size : 689 MiB (3%)
Language : French
Default : No
Forced : No
Text #1
ID : 7
Format : UTF-8
Codec ID : S_TEXT/UTF8
Codec ID/Info : UTF-8 Plain Text
Duration : 1 h 42 min
Bit rate : 65 b/s
Count of elements : 947
Stream size : 49.5 KiB (0%)
Language : Russian
Default : No
Forced : No
Text #2
ID : 8
Format : UTF-8
Codec ID : S_TEXT/UTF8
Codec ID/Info : UTF-8 Plain Text
Duration : 1 h 42 min
Bit rate : 36 b/s
Count of elements : 719
Stream size : 27.1 KiB (0%)
Language : English
Default : No
Forced : No
Menu
00:00:00.000 : en:
00:09:57.458 : en:
00:21:15.958 : en:
00:28:35.833 : en:
00:37:37.416 : en:
00:45:20.333 : en:
00:52:28.833 : en:
01:00:50.291 : en:
01:09:17.207 : en:
01:19:11.666 : en:
01:30:08.582 : en:
01:36:57.791 : en:
 
Не забывайте говорить Спасибо. Не уходите с раздачи!   
Торрент: Зарегистрирован [13 мар 2018, 22:12] Для скачивания .torrent
необходима регистрация
Или скачать с помощью
MediaGet
Статус:
Проверен
 
.torrent скачан: 0 раз
Хэш: 42c33821f5b5195f35eea6da1079c0a55746c1be
Размер: 24.56 ГБ (26 376 152 729 байт)
Стать Автором раздачи
 
 
Раздал: 0 байт
Скачал: 0 байт
Ратио: Inf.
Сообщения: 487468
Зарегистрирован: 17 апр 2014, 13:57


  • Похожие торренты
    Ответы
    Просмотры
    Последнее сообщение

Вернуться в HD Video на модерации

Ресурс не предоставляет электронные версии произведений, а занимается лишь коллекционированием и каталогизацией ссылок, присылаемых и публикуемых на форуме нашими читателями. Если вы являетесь правообладателем какого-либо представленного материала и не желаете чтобы ссылка на него находилась в нашем каталоге, свяжитесь с нами и мы незамедлительно удалим её. Файлы для обмена на трекере предоставлены пользователями сайта, и администрация не несёт ответственности за их содержание. Просьба не заливать файлы, защищенные авторскими правами, а также файлы нелегального содержания!
cron