[ATV 3] Вне времени / Timeless / Сезон 2, Эпизод 1-1 (16) (Джон Шоуолтер, Грег Биман, Чарльз Бисон,) [2018, США, фантастика, боевик, драма, приключения, WEB-DL HD (1080p)] MVO (Lostfilm) + Original + Sub (eng)

 
 Статистика раздачи 
Размер: 1.84 ГБ   |  Зарегистрирован: 13 мар 2018, 21:25   |   .torrent скачан: 0 раз
Сидеров: 1  [ 0 байт/сек ]     Личеров: 0  [ 0 байт/сек ]  
  

[ATV 3] Вне времени / Timeless / Сезон 2, Эпизод 1-1 (16) (Джон Шоуолтер, Грег Биман, Чарльз Бисон,) [2018, США, фантастика, боевик, драма, приключения, WEB-DL HD (1080p)] MVO (Lostfilm) + Original + Sub (eng)

Сообщение Nakazhu » 13 мар 2018, 21:26

Вне времени / Timeless



Год выпуска: 2018
Страна: США
Жанр: фантастика, боевик, драма, приключения
Продолжительность серии: 42 мин.
Перевод: Многоголосый закдровый перевод
Оригинальная аудиодорожка: Есть
Cубтитры: Русские, Английские
Режиссёр: Джон Шоуолтер, Грег Биман, Чарльз Бисон,
Сценарий: Эрик Крипке, Шон Райан, Анслем Ричардсон
Продюсер: Михаэла Старр, Мэтт Уитни, Шон Уильямсон
Оператор: Джимми Линдси, Марк Чоу, Сэм МакКёрди
Композитор: Роберт Дункан
Художник: Джон Марсинак, Арвиндер Грюал, Роджер Файрес
Монтаж: Дэвид Калдор, Энтони Пинкер, Николь Баэр
В ролях: В главных ролях: Эбигейл Спенсер, Мэтт Лантер, Малкольм Баррет, Клаудия Дурмит, Горан Вишнич, Пэтерсон Джозеф, Сакина Джэффри, Джон Гец, Чад Рук, Мэтт Фрюэр
Описание: Сюжет повествует о команде из трёх человек, путешествующих по времени в поисках могущественного и злокозненного гада, который вознамерился переписать историю человечества. Если трио не успеет сработаться и сорвать преступный план, миру, естественно, грозит катастрофа.
Криминальный гений Гарсия Флинн крадёт машину времени, чтобы изменить американскую историю и уничтожить страну. Команда, собранная для того чтобы отправиться в прошлое и остановить его, состоит из профессора истории Люси Престон, солдата Уайатта Логана и учёного Руфуса Карлина.


Качество исходника: WEB-DL 1080p (iTunes US)
Качество: WEB-DL
Тип: 1080p
Контейнер: m4v
Видео: 1912 x 1072 at 23.976 fps, MPEG-4 AVC, ~5000 kbps avg
Аудио: LostFilm - Русский - Закадровый перевод: MPEG-4 AAC LC, 2.0, ~ 160 kbps, 48000 Hz / AC-3, 5.1, 384 kbps, 48000 Hz
Аудио: Английский (США): MPEG-4 AAC LC, 2.0, ~ 160 kbps, 48000 Hz / AC-3, 5.1, 384 kbps, 48000 Hz
Субтитры: Английский - SDH для глухих: TX3G
Субтитры: Английский - скрытые субтитры: CEA-608
Вне времени, Сезон 2

Timeless, Season 2
Eng: In the Season 2 premiere, after barely escaping an explosion at Mason Industries, Wyatt and Rufus chase the Mothership back to a French battlefront during World War One to rescue Lucy from Rittenhouse. There, they discover that Lucy has recruited Marie Curie, the famous French scientist, to help save the life of a wounded American soldier, only to learn that the soldier is Lucy's own great grandfather, who Rittenhouse is bringing to the present to be their leader.
Код:
Код: Выделить всё
Name: The War to End All Wars
Artist: Timeless
Album Artist: Timeless
Album: Timeless, Season 2
Media Kind: 10
HD Video:2
Genre: Drama
Release Date: 2018-03-11T08:00:00Z
Track #: 1/16
Disk #: 1/1
TV Show: Timeless
TV Episode #: 2
TV Network: NBC
TV Episode ID: 201
TV Season: 2
Description: In the Season 2 premiere, after barely escaping an explosion at Mason Industries, Wyatt and Rufus
Long Description: In the Season 2 premiere, after barely escaping an explosion at Mason Industries, Wyatt and Rufus chase the Mothership back to a French battlefront during World War One to rescue Lucy from Rittenhouse. There, they discover that Lucy has recruited Marie Curie, the famous French scientist, to help save the life of a wounded American soldier, only to learn that the soldier is Lucy's own great grandfather, who Rittenhouse is bringing to the present to be their leader.
Series Description: From Eric Kripke (“Revolution,” “Supernatural”) and Shawn Ryan (“The Shield”), Season 2 of this thrilling action-adventure series will pickup right where we left off with our heroes.   We continue to race throughout history with our beloved team: Rufus (Malcolm Barrett), a scientist; Wyatt (Matt Lanter), a soldier; and Lucy (Abigail Spencer), a history professor, in an attempt to prevent the destruction of our world as we all know it.  This season they’ll find an unlikely ally in their quest to ruin Rittenhouse, a deadly organization with plans to change history and reshape reality — even though Lucy’s family has been a part of Rittenhouse for centuries.  Still making every effort not to affect the past themselves, they will visit 1692, 1917, 1941, 1981 and more.  We’ll be introduced to the likes of Marie Curie, Hedy Lamarr, William Randolph Hearst and a multitude of other influential people
Content Rating: 0
Copyright: В© 2018 Sony Pictures Television Inc. and Universal Television LLC. All Rights Reserved.
content ID: 1358110777
artist ID: 1136370468
playlist ID: 1339385455
genre ID: 4001
XID: _201
iTunes Country: 143441
Sort Name: War to End All Wars
Sort Artist: Timeless
Sort Album: Timeless, Season 2

Код:
Код: Выделить всё
General
Complete name                            : 01 The War to End All Wars (1080p HD).m4v
Format                                   : MPEG-4
Codec ID                                 : M4V  (M4V /mp42/isom)
File size                                : 1.84 GiB
Duration                                 : 42 min 29 s
Overall bit rate mode                    : Variable
Overall bit rate                         : 6 209 kb/s
Collection                               : Timeless
Season                                   : 2
Album                                    : Timeless, Season 2
Album/Sorted by                          : Timeless, Season 2
Album/Performer                          : Timeless
Part                                     : 1
Part/Position                            : 1
Part/Total                               : 1
Track name                               : The War to End All Wars
Track name/Position                      : 1
Track name/Total                         : 16
Performer                                : Timeless
Performer/Sorted by                      : Timeless
Genre                                    : Drama
ContentType                              : TV Show
Description                              : In the Season 2 premiere, after barely escaping an explosion at Mason Industries, Wyatt and Rufus / From Eric Kripke (“Revolution,” “Supernatural”) and Shawn Ryan (“The Shield”), Season 2 of this thrilling action-adventure series will pickup right where we left off with our heroes.   We continue to race throughout history with our beloved team: Rufus (Malcolm Barrett), a scientist; Wyatt (Matt Lanter), a soldier; and Lucy (Abigail Spencer), a history professor, in an attempt to prevent the destruction of our world as we all know it.  This season they'll find an unlikely ally in their quest to ruin Rittenhouse, a deadly organization with plans to change history and reshape reality — even though Lucy's family has been a part of Rittenhouse for centuries.  Still making every effort not to affect the past themselves, they will visit 1692, 1917, 1941, 1981 and more.  We'll be introduced to the likes of Marie Curie, Hedy Lamarr, William Randolph Hearst and a multitude of other influential people
Recorded date                            : UTC 2018-03-11 08:00:00
Encoded date                             : UTC 2018-03-11 08:00:00
Tagged date                              : UTC 2018-03-11 08:00:00
Copyright                                : В© 2018 Sony Pictures Television Inc. and Universal Television LLC. All Rights Reserved.
Cover                                    : Yes
Rating                                   : None
AppleStoreCatalogID                      : 1358110777
AlbumTitleID                             : 1136370468
PlayListID                               : 1339385455
GenreID                                  : 4001
Part_ID                                  : 201
Title/Sort                               : War to End All Wars
ContentRating                            : us-tv|TV-14|500|
LongDescription                          : In the Season 2 premiere, after barely escaping an explosion at Mason Industries, Wyatt and Rufus chase the Mothership back to a French battlefront during World War One to rescue Lucy from Rittenhouse. There, they discover that Lucy has recruited Marie Curie, the famous French scientist, to help save the life of a wounded American soldier, only to learn that the soldier is Lucy's own great grandfather, who Rittenhouse is bringing to the present to be their leader.
TVNetworkName                            : NBC
Vendor                                   : _201
Flavour                                  : 18:1080p
AppleStoreCountry                        : United States
Video
ID                                       : 1
Format                                   : AVC
Format/Info                              : Advanced Video Codec
Format profile                           : High@L4
Format settings                          : CABAC / 4 Ref Frames
Format settings, CABAC                   : Yes
Format settings, RefFrames               : 4 frames
Codec ID                                 : avc1
Codec ID/Info                            : Advanced Video Coding
Duration                                 : 42 min 29 s
Bit rate                                 : 5 146 kb/s
Maximum bit rate                         : 13.1 Mb/s
Width                                    : 1 912 pixels
Height                                   : 1 072 pixels
Display aspect ratio                     : 16:9
Frame rate mode                          : Constant
Frame rate                               : 23.976 (24000/1001) FPS
Color space                              : YUV
Chroma subsampling                       : 4:2:0
Bit depth                                : 8 bits
Scan type                                : Progressive
Bits/(Pixel*Frame)                       : 0.105
Stream size                              : 1.53 GiB (83%)
Title                                    : Core Media Video
Language                                 : English
Encoded date                             : UTC 2018-03-11 08:00:00
Tagged date                              : UTC 2018-03-11 08:00:00
Color range                              : Limited
Color primaries                          : BT.709
Transfer characteristics                 : BT.709
Matrix coefficients                      : BT.709
Audio #1
ID                                       : 2
Format                                   : AAC
Format/Info                              : Advanced Audio Codec
Format profile                           : LC
Codec ID                                 : mp4a-40-2
Duration                                 : 42 min 29 s
Bit rate mode                            : Variable
Bit rate                                 : 132 kb/s
Maximum bit rate                         : 187 kb/s
Channel(s)                               : 2 channels
Channel positions                        : Front: L R
Sampling rate                            : 48.0 kHz
Frame rate                               : 46.875 FPS (1024 SPF)
Compression mode                         : Lossy
Stream size                              : 39.8 MiB (2%)
Title                                    : Core Media Audio
Language                                 : Russian
Default                                  : Yes
Alternate group                          : 1
Encoded date                             : UTC 2018-03-13 15:42:55
Tagged date                              : UTC 2018-03-13 15:42:55
Fallback From                            : 3
tagc                                     : public.translation.voice-over
Audio #2
ID                                       : 3
Format                                   : AC-3
Format/Info                              : Audio Coding 3
Format settings, Endianness              : Big
Codec ID                                 : ac-3
Duration                                 : 42 min 29 s
Bit rate mode                            : Constant
Bit rate                                 : 384 kb/s
Maximum bit rate                         : 406 kb/s
Channel(s)                               : 6 channels
Channel positions                        : Front: L C R, Side: L R, LFE
Sampling rate                            : 48.0 kHz
Frame rate                               : 31.250 FPS (1536 SPF)
Bit depth                                : 16 bits
Compression mode                         : Lossy
Stream size                              : 117 MiB (6%)
Title                                    : Core Media Audio
Language                                 : Russian
Service kind                             : Complete Main
Default                                  : Inherited From: 2
Alternate group                          : 1
Encoded date                             : UTC 2018-03-13 15:42:55
Tagged date                              : UTC 2018-03-13 15:42:55
Fallback To                              : 2
tagc                                     : public.translation.voice-over
Audio #3
ID                                       : 4
Format                                   : AAC
Format/Info                              : Advanced Audio Codec
Format profile                           : LC
Codec ID                                 : mp4a-40-2
Duration                                 : 42 min 29 s
Bit rate mode                            : Variable
Bit rate                                 : 154 kb/s
Maximum bit rate                         : 241 kb/s
Channel(s)                               : 2 channels
Channel positions                        : Front: L R
Sampling rate                            : 48.0 kHz
Frame rate                               : 46.875 FPS (1024 SPF)
Compression mode                         : Lossy
Stream size                              : 46.9 MiB (2%)
Title                                    : Core Media Audio
Language                                 : English
Default                                  : No
Alternate group                          : 1
Encoded date                             : UTC 2018-03-11 08:00:00
Tagged date                              : UTC 2018-03-11 08:00:00
Fallback From                            : 6
Audio #4
ID                                       : 6
Format                                   : AC-3
Format/Info                              : Audio Coding 3
Format settings, Endianness              : Big
Codec ID                                 : ac-3
Duration                                 : 42 min 29 s
Bit rate mode                            : Constant
Bit rate                                 : 384 kb/s
Maximum bit rate                         : 406 kb/s
Channel(s)                               : 6 channels
Channel positions                        : Front: L C R, Side: L R, LFE
Sampling rate                            : 48.0 kHz
Frame rate                               : 31.250 FPS (1536 SPF)
Bit depth                                : 16 bits
Compression mode                         : Lossy
Stream size                              : 117 MiB (6%)
Title                                    : Core Media Audio
Language                                 : English
Service kind                             : Complete Main
Default                                  : No
Alternate group                          : 1
Encoded date                             : UTC 2018-03-11 08:00:00
Tagged date                              : UTC 2018-03-11 08:00:00
Fallback To                              : 4
Text #1
ID                                       : 5-CC1
Format                                   : EIA-608
Muxing mode                              : Final Cut
Codec ID                                 : c608
Duration                                 : 41 min 55 s
Bit rate mode                            : Constant
Stream size                              : 0.00 Byte (0%)
Title                                    : Core Media Closed Caption
Language                                 : English
Forced                                   : No
Encoded date                             : UTC 2018-03-11 08:00:00
Tagged date                              : UTC 2018-03-11 08:00:00
CaptionServiceName                       : CC1
Text #2
ID                                       : 7
Format                                   : Timed Text
Muxing mode                              : sbtl
Codec ID                                 : tx3g
Duration                                 : 41 min 55 s
Bit rate mode                            : Variable
Bit rate                                 : 93 b/s
Stream size                              : 28.4 KiB (0%)
Title                                    : Core Media Subtitle
Language                                 : English
Default                                  : No
Forced                                   : No
Alternate group                          : 2
Encoded date                             : UTC 2018-03-11 08:00:00
Tagged date                              : UTC 2018-03-11 08:00:00
tagc                                     : public.accessibility.transcribes-spoken-dialog


[/spoiler]
 
Не забывайте говорить Спасибо. Не уходите с раздачи!   
Торрент: Зарегистрирован [13 мар 2018, 21:25] Для скачивания .torrent
необходима регистрация
Или скачать с помощью
MediaGet
Статус:
Проверен
 
.torrent скачан: 0 раз
Хэш: 3da5d706e00e34d56f3abf028af9272d8de16cb9
Размер: 1.84 ГБ (1 978 851 032 байт)
Стать Автором раздачи
 
 
Раздал: 0 байт
Скачал: 0 байт
Ратио: Inf.
Сообщения: 471631
Зарегистрирован: 17 апр 2014, 13:57


  • Похожие торренты
    Ответы
    Просмотры
    Последнее сообщение

Вернуться в Сериалы HD для Apple TV

Ресурс не предоставляет электронные версии произведений, а занимается лишь коллекционированием и каталогизацией ссылок, присылаемых и публикуемых на форуме нашими читателями. Если вы являетесь правообладателем какого-либо представленного материала и не желаете чтобы ссылка на него находилась в нашем каталоге, свяжитесь с нами и мы незамедлительно удалим её. Файлы для обмена на трекере предоставлены пользователями сайта, и администрация не несёт ответственности за их содержание. Просьба не заливать файлы, защищенные авторскими правами, а также файлы нелегального содержания!
cron