Что? Где? Когда? | Весенняя серия игр 2018 | Игра 1-2 (5) [2018, Интеллектуальная игра, HDTVRip 720p]

 
 Статистика раздачи 
Размер: 4.09 ГБ   |  Зарегистрирован: 13 мар 2018, 20:55   |   .torrent скачан: 0 раз
Сидеров: 1  [ 0 байт/сек ]     Личеров: 0  [ 0 байт/сек ]  
  

Что? Где? Когда? | Весенняя серия игр 2018 | Игра 1-2 (5) [2018, Интеллектуальная игра, HDTVRip 720p]

Сообщение Nakazhu » 13 мар 2018, 20:55

Что? Где? Когда?

Весенняя серия игр 2018
Игра 1-2
Год выпуска: 2018
Страна: Россия
Жанр: Телеигра
Телеканал: Первый
Язык: русский
Продолжительность: 01:08:30, 01:01:25
Описание: Интеллектуальная викторина, наиболее распространённая в русскоязычной среде. Была создана в 1975 г. телеведущим Владимиром Ворошиловым. Игра очень быстро стала настолько популярной, что кроме оригинальной телевизионной версии появилась спортивная версия игры. Сущность игры заключается в противостоянии команды Знатоков (игровой команды из шести человек) команде Телезрителей. Знатоки должны за одну минуту при помощи мозгового штурма найти ответ на вопрос, присланный телезрителем. Как правило, игрокам задаются вопросы, ответить на которые можно с помощью общих знаний и логики. За каждый правильный ответ команда Знатоков получает одно очко, в случае неверного ответа очко начисляется команде Телезрителей. Игра ведётся до шести очков.
Качество: HDTVRip 720p (за исходник спасибо Doc66)
Формат: MKV
Видео: H.264, 1280x720, 4278-4358 kbps, 25 fps
Аудио: Russian, AC3, 2ch, 48 kHz, 192 kbps
Команда Звезды КВН
Команда Звезды КВН

x264 [info]: frame I:651 Avg QP:18.45 size: 92330
x264 [info]: frame P:24877 Avg QP:19.66 size: 44494
x264 [info]: frame B:77226 Avg QP:21.79 size: 13350
x264 [info]: consecutive B-frames: 1.6% 2.6% 5.2% 58.8% 8.4% 20.4% 1.6% 1.3% 0.2%
x264 [info]: mb I I16..4: 4.0% 74.7% 21.2%
x264 [info]: mb P I16..4: 2.6% 17.9% 2.8% P16..4: 31.7% 34.5% 8.3% 1.0% 0.1% skip: 1.1%
x264 [info]: mb B I16..4: 0.6% 1.6% 0.2% B16..8: 36.1% 24.1% 3.3% direct: 7.4% skip:26.6% L0:38.4% L1:47.8% BI:13.8%
x264 [info]: 8x8 transform intra:74.1% inter:62.1%
x264 [info]: coded y,uvDC,uvAC intra: 68.1% 92.8% 72.0% inter: 18.2% 35.7% 15.7%
x264 [info]: i16 v,h,dc,p: 20% 13% 8% 59%
x264 [info]: i8 v,h,dc,ddl,ddr,vr,hd,vl,hu: 9% 7% 9% 9% 12% 13% 12% 13% 15%
x264 [info]: i4 v,h,dc,ddl,ddr,vr,hd,vl,hu: 12% 10% 8% 8% 13% 13% 12% 10% 13%
x264 [info]: i8c dc,h,v,p: 45% 17% 19% 18%
x264 [info]: Weighted P-Frames: Y:2.4% UV:1.7%
x264 [info]: ref P L0: 56.6% 10.5% 19.0% 5.2% 5.0% 3.6% 0.1% 0.0%
x264 [info]: ref B L0: 91.0% 6.3% 1.7% 0.7% 0.3%
x264 [info]: ref B L1: 98.2% 1.8%
x264 [info]: kb/s:4278.04
x264 [info]: encoded 102754 frames, 4.79 fps, 4278.04 kb/s, duration 5:57:30.86
Format : Matroska
Format version : Version 4 / Version 2
File size : 2.14 GiB
Duration : 1h 8mn
Overall bit rate : 4 472 Kbps
Encoded date : UTC 2018-03-06 18:44:10
Writing application : mkvmerge v8.3.0 ('Over the Horizon') 64bit
Writing library : libebml v1.3.1 + libmatroska v1.4.2
DURATION : 01:08:30.176000000
NUMBER_OF_FRAMES : 128443
NUMBER_OF_BYTES : 98644224
_STATISTICS_WRITING_APP : mkvmerge v8.3.0 ('Over the Horizon') 64bit
_STATISTICS_WRITING_DATE_UTC : 2018-03-06 18:44:10
_STATISTICS_TAGS : BPS DURATION NUMBER_OF_FRAMES NUMBER_OF_BYTES
Video
ID : 1
Format : AVC
Format/Info : Advanced Video Codec
Format profile : High@L4.1
Format settings, CABAC : Yes
Format settings, ReFrames : 6 frames
Codec ID : V_MPEG4/ISO/AVC
Duration : 1h 8mn
Bit rate : 4 191 Kbps
Width : 1 280 pixels
Height : 720 pixels
Display aspect ratio : 16:9
Frame rate mode : Constant
Frame rate : 25.000 fps
Color space : YUV
Chroma subsampling : 4:2:0
Bit depth : 8 bits
Scan type : Progressive
Bits/(Pixel*Frame) : 0.182
Stream size : 2.01 GiB (94%)
Writing library : x264 core 152 r2851kMod ba24899
Encoding settings : cabac=1 / ref=6 / deblock=1:-1:0 / analyse=0x3:0x133 / me=umh / subme=11 / psy=1 / fade_compensate=0.00 / psy_rd=1.00:0.03 / mixed_ref=1 / me_range=32 / chroma_me=1 / trellis=2 / 8x8dct=1 / cqm=0 / deadzone=21,11 / fast_pskip=0 / chroma_qp_offset=-3 / threads=6 / lookahead_threads=1 / sliced_threads=0 / nr=0 / decimate=1 / interlaced=0 / bluray_compat=0 / constrained_intra=0 / bframes=8 / b_pyramid=2 / b_adapt=2 / b_bias=0 / direct=1 / weightb=1 / open_gop=0 / weightp=2 / keyint=250 / keyint_min=25 / scenecut=40 / intra_refresh=0 / rc_lookahead=40 / rc=crf / mbtree=0 / crf=20.0000 / qcomp=0.65 / qpmin=0 / qpmax=69 / qpstep=4 / vbv_maxrate=62500 / vbv_bufsize=78125 / crf_max=0.0 / nal_hrd=none / filler=0 / ip_ratio=1.40 / pb_ratio=1.30 / aq=3:1.00
Language : Russian
Default : Yes
Forced : No
DURATION : 01:08:30.160000000
NUMBER_OF_FRAMES : 102754
NUMBER_OF_BYTES : 2197929119
_STATISTICS_WRITING_APP : mkvmerge v8.3.0 ('Over the Horizon') 64bit
_STATISTICS_WRITING_DATE_UTC : 2018-03-06 18:44:10
_STATISTICS_TAGS : BPS DURATION NUMBER_OF_FRAMES NUMBER_OF_BYTES
Matrix coefficients : BT.709
Audio
ID : 2
Format : AC-3
Format/Info : Audio Coding 3
Mode extension : CM (complete main)
Format settings, Endianness : Big
Codec ID : A_AC3
Duration : 1h 8mn
Bit rate mode : Constant
Bit rate : 192 Kbps
Channel(s) : 2 channels
Channel positions : Front: L R
Sampling rate : 48.0 KHz
Bit depth : 16 bits
Compression mode : Lossy
Stream size : 94.1 MiB (4%)
Language : Russian
Default : Yes
Forced : No
Исходник........................................Рип




 
Не забывайте говорить Спасибо. Не уходите с раздачи!   
Торрент: Зарегистрирован [13 мар 2018, 20:55] Для скачивания .torrent
необходима регистрация
Или скачать с помощью
MediaGet
Статус:
Проверен
 
.torrent скачан: 0 раз
Хэш: 28f3f6305893c14e44b7d9a03206c046f7433acc
Размер: 4.09 ГБ (4 394 328 656 байт)
Стать Автором раздачи
 
 
Раздал: 0 байт
Скачал: 0 байт
Ратио: Inf.
Сообщения: 471607
Зарегистрирован: 17 апр 2014, 13:57


  • Похожие торренты
    Ответы
    Просмотры
    Последнее сообщение

Вернуться в Интеллектуальные игры и викторины

Ресурс не предоставляет электронные версии произведений, а занимается лишь коллекционированием и каталогизацией ссылок, присылаемых и публикуемых на форуме нашими читателями. Если вы являетесь правообладателем какого-либо представленного материала и не желаете чтобы ссылка на него находилась в нашем каталоге, свяжитесь с нами и мы незамедлительно удалим её. Файлы для обмена на трекере предоставлены пользователями сайта, и администрация не несёт ответственности за их содержание. Просьба не заливать файлы, защищенные авторскими правами, а также файлы нелегального содержания!
cron