Внутренний долг / Долг / La deuda interna (Мигель Перейра / Miguel Pereira) [1988, Аргентина, Великобритания, драма, военный, DVDRip-AVC] VO (Виктор Рутилов) + Original Spa + Sub (Eng, Por, Rus)

 
 Статистика раздачи 
Размер: 1.43 ГБ   |  Зарегистрирован: 13 мар 2018, 20:54   |   .torrent скачан: 0 раз
Сидеров: 1  [ 0 байт/сек ]     Личеров: 0  [ 0 байт/сек ]  
  

Внутренний долг / Долг / La deuda interna (Мигель Перейра / Miguel Pereira) [1988, Аргентина, Великобритания, драма, военный, DVDRip-AVC] VO (Виктор Рутилов) + Original Spa + Sub (Eng, Por, Rus)

Сообщение Nakazhu » 13 мар 2018, 20:54

Внутренний долг / La deuda interna
Страна: Аргентина, Великобритания
Жанр: драма, военный
Год выпуска: 1988 г.
Премьера: 4 августа 1988 (Аргентина)
Продолжительность: 01:35:33
Перевод: Одноголосый закадровый Виктор Рутилов по субтитрам Handino
Субтитры: английские, португальские, русские
Оригинальная аудиодорожка: испанский
Режиссер: Мигель Перейра / Miguel PereiraВ ролях: Хуан-Хосе Камеро, Гонсало Моралес, Рене Олагивель, Гильермо Дельгадо, Дон Леопольдо Абан, Ана-Мария Гонсалес, Фортунато Рамос, Хуана-Даниела КаселесОписание: Действие фильма происходит в Аргентине во времена военного переворота 1976 года, чемпионата мира по футболу 1978 года и Мальвинской войны 1982 года. Это история о Веронико Крус, из Чоркáна, далекой деревни на севере Аргентины в высокогорье Анд: его мать умерла при родах, отец оставил его на попечении бабушки, а когда она умерла, – школьный учитель проявляет заботу о Веронико и заменяет ему отца. Позже учителя переводят на новое место работы, но он продолжает переписываться с Веронико, пока переписка не обрывается. Обеспокоенный учитель возвращается в Чоркáн…
Призы:
«Серебряный медведь» (Берлинский кинофестиваль 1989 года)
«Лучший фильм» (Premios Cóndor de Plata, Аргентина, 1989 год)

Релиз:
Доп. информация :
1. За исходный DVD огромное спасибо parsec (релизёр KG)!
2. За озвучивание огромное спасибо Виктору Рутилову!
3. Перевод фильма с испанского языка (Аргентина).
Тип релиза: DVDRip-AVC
Контейнер: MKV
Видео: H.264/AVC, NTSC, 3:2 (696x408)->(696x459), VBR ~ 1750 kbps, 23.976 fps
Аудио 1: Espanol AC3, 2 ch, 192 Kbps, 48 kHz
Аудио 2: Russian AC3, 2 ch, 192 Kbps, 48 kHz
Формат субтитров: softsub (SRT)
Общее
Уникальный идентификатор : 183106867953643534945934011643355032516 (0x89C11999B29136598AE371112F256BC4)
Полное имя : D:\RAZDACHI\DVDRip\La Deuda Interna - Miguel Pereira - 1988 [DVDRip]\La Deuda Interna - 1988.mkv
Формат : Matroska
Версия формата : Version 4 / Version 2
Размер файла : 1,43 Гбайт
Продолжительность : 1 ч. 35 м.
Общий поток : 2136 Кбит/сек
Дата кодирования : UTC 2018-03-13 16:20:30
Программа кодирования : mkvmerge v10.0.0 ('To Drown In You') 32bit
Библиотека кодирования : libebml v1.3.4 + libmatroska v1.4.5
Видео
Идентификатор : 1
Формат : AVC
Формат/Информация : Advanced Video Codec
Профиль формата : High@L4.1
Настройки формата : CABAC / 16 Ref Frames
Параметр CABAC формата : Да
Параметр RefFrames формата : 16 кадров
Идентификатор кодека : V_MPEG4/ISO/AVC
Продолжительность : 1 ч. 35 м.
Битрейт : 1750 Кбит/сек
Ширина : 696 пикселей
Высота : 408 пикселей
Соотношение сторон : 3:2
Режим частоты кадров : Постоянный
Частота кадров : 23,976 (24000/1001) кадра/сек
Частота кадров в оригинале : 23,976 (23976/1000) кадра/сек
Цветовое пространство : YUV
Субдискретизация насыщенности : 4:2:0
Битовая глубина : 8 бит
Тип развёртки : Прогрессивная
Бит/(Пиксели*Кадры) : 0.257
Размер потока : 1,17 Гбайт (82%)
Заголовок : La Deuda Interna
Библиотека кодирования : x264 core 152 r2851 ba24899
Настройки программы : cabac=1 / ref=16 / deblock=1:-1:-1 / analyse=0x3:0x133 / me=umh / subme=10 / psy=1 / psy_rd=1.00:0.15 / mixed_ref=1 / me_range=24 / chroma_me=1 / trellis=2 / 8x8dct=1 / cqm=0 / deadzone=21,11 / fast_pskip=1 / chroma_qp_offset=-3 / threads=3 / lookahead_threads=1 / sliced_threads=0 / nr=0 / decimate=1 / interlaced=0 / bluray_compat=0 / constrained_intra=0 / bframes=8 / b_pyramid=2 / b_adapt=2 / b_bias=0 / direct=3 / weightb=1 / open_gop=0 / weightp=2 / keyint=250 / keyint_min=10 / scenecut=40 / intra_refresh=0 / rc_lookahead=60 / rc=2pass / mbtree=1 / bitrate=1750 / ratetol=1.0 / qcomp=0.60 / qpmin=0 / qpmax=69 / qpstep=4 / cplxblur=20.0 / qblur=0.5 / ip_ratio=1.40 / aq=1:1.00
Default : Да
Forced : Нет
Аудио #1
Идентификатор : 2
Формат : AC-3
Формат/Информация : Audio Coding 3
Идентификатор кодека : A_AC3
Продолжительность : 1 ч. 35 м.
Вид битрейта : Постоянный
Битрейт : 192 Кбит/сек
Каналы : 2 канала
Расположение каналов : Front: L R
Частота : 48,0 КГц
Частота кадров : 31,250 кадров/сек (1536 SPF)
Битовая глубина : 16 бит
Метод сжатия : С потерями
Размер потока : 131 Мбайт (9%)
Заголовок : Spanish
Язык : Spanish
ServiceKind/String : Complete Main
Default : Нет
Forced : Нет
Аудио #2
Идентификатор : 3
Формат : AC-3
Формат/Информация : Audio Coding 3
Идентификатор кодека : A_AC3
Продолжительность : 1 ч. 35 м.
Вид битрейта : Постоянный
Битрейт : 192 Кбит/сек
Каналы : 2 канала
Расположение каналов : Front: L R
Частота : 48,0 КГц
Частота кадров : 31,250 кадров/сек (1536 SPF)
Битовая глубина : 16 бит
Метод сжатия : С потерями
Размер потока : 131 Мбайт (9%)
Заголовок : Russian
Язык : Russian
ServiceKind/String : Complete Main
Default : Да
Forced : Нет
Текст #1
Идентификатор : 4
Формат : UTF-8
Идентификатор кодека : S_TEXT/UTF8
Идентификатор кодека/Информация : UTF-8 Plain Text
Продолжительность : 1 ч. 29 м.
Битрейт : 24 бит/сек
ElementCount : 510
Размер потока : 15,9 Кбайт (0%)
Заголовок : English
Язык : English
Default : Нет
Forced : Нет
Текст #2
Идентификатор : 5
Формат : UTF-8
Идентификатор кодека : S_TEXT/UTF8
Идентификатор кодека/Информация : UTF-8 Plain Text
Продолжительность : 1 ч. 29 м.
Битрейт : 24 бит/сек
ElementCount : 509
Размер потока : 16,0 Кбайт (0%)
Заголовок : Portuguese
Язык : Portuguese
Default : Нет
Forced : Нет
Текст #3
Идентификатор : 6
Формат : UTF-8
Идентификатор кодека : S_TEXT/UTF8
Идентификатор кодека/Информация : UTF-8 Plain Text
Продолжительность : 1 ч. 33 м.
Битрейт : 45 бит/сек
ElementCount : 583
Размер потока : 30,9 Кбайт (0%)
Заголовок : Russian
Язык : Russian
Default : Нет
Forced : Нет
Меню
00:00:00.000 : es:Escena 01
00:16:42.585 : es:Escena 02
00:30:28.702 : es:Escena 03
00:43:50.294 : es:Escena 04
00:59:33.862 : es:Escena 05
01:14:09.946 : es:Escena 06
 
Не забывайте говорить Спасибо. Не уходите с раздачи!   
Торрент: Зарегистрирован [13 мар 2018, 20:54] Скачать торрент
Скачать торрент
[ Размер 14.72 КБ / Просмотров 1 ]
Статус:
Проверен
 
.torrent скачан: 0 раз
Хэш: 3bded127e908ffc65f8c91dab4fe76e794c3190e
Размер: 1.43 ГБ (1 532 179 523 байт)
Стать Автором раздачи
 
 
Раздал: 0 байт
Скачал: 0 байт
Ратио: Inf.
Сообщения: 487468
Зарегистрирован: 17 апр 2014, 13:57


  • Похожие торренты
    Ответы
    Просмотры
    Последнее сообщение

Вернуться в Зарубежное кино

Ресурс не предоставляет электронные версии произведений, а занимается лишь коллекционированием и каталогизацией ссылок, присылаемых и публикуемых на форуме нашими читателями. Если вы являетесь правообладателем какого-либо представленного материала и не желаете чтобы ссылка на него находилась в нашем каталоге, свяжитесь с нами и мы незамедлительно удалим её. Файлы для обмена на трекере предоставлены пользователями сайта, и администрация не несёт ответственности за их содержание. Просьба не заливать файлы, защищенные авторскими правами, а также файлы нелегального содержания!
cron