Василиса Прекрасная (Александр Роу) [1939, сказка, DVDRip]

 
 Статистика раздачи 
Размер: 1.09 ГБ   |  Зарегистрирован: 13 мар 2018, 18:36   |   .torrent скачан: 0 раз
Сидеров: 1  [ 0 байт/сек ]     Личеров: 0  [ 0 байт/сек ]  
  

Василиса Прекрасная (Александр Роу) [1939, сказка, DVDRip]

Сообщение Nakazhu » 13 мар 2018, 18:36

Василиса Прекрасная
Жанр: сказка
Год выпуска
: 1939
Продолжительность: 01:10:08
Режиссёр: Александр Роу
В ролях: Георгий Милляр, Сергей Столяров, Лев Потёмкин, Никита Кондратьев, Валентина Сорогожская, Ирина Зарубина, Лидия Сухаревская, Татьяна Барышева, М. Скавронская, Мария Барабанова
Описание: По пьесе-сказке Г. Владычиной, написанной по мотивам русских народных сказок («Царевна-лягушка» и др.).
Задумал отец женить трёх своих сыновей. Вышли братья в чистое поле и пустили стрелы в разные стороны. Стрела старшего сына упала на боярский двор, к боярской дочери, стрела среднего сына упала на двор купеческий, а стрела Ивана, младшего сына, упала на болото к лягушке-квакушке… Завистливые жёны братьев сожгли лягушечью кожу Василисы, и Змей-Горыныч унёс её в свое тёмное царство. Злая Баба-Яга стережёт Василису Прекрасную. Добрый молодец Иван отправляется вызволять свою любимую из лап чудища. Любовь, отвага и смекалка помогают одолеть тёмные силы…

Качество видео: DVDRip
Формат видео
: AVI
Видео: 640x480 (1.33:1), 25 fps, XviD build 73 ~2078 kbps avg, 0.27 bit/pixel
Аудио: 48 kHz, AC3 Dolby Digital, 1/0 (C) ch, ~128 kbps
General
Complete name : H:\Василиса.Прекрасная.1939.dvdrip_[1.09]_[teko].avi
Format : AVI
Format/Info : Audio Video Interleave
File size : 1.09 GiB
Duration : 1h 10mn
Overall bit rate : 2 216 Kbps
Writing application : VirtualDubMod 1.5.10.3 | www.virtualdub-fr.org || (build 2550/release)
Writing library : VirtualDubMod build 2550/release
Video
ID : 0
Format : MPEG-4 Visual
Format profile : Advanced Simple@L5
Format settings, BVOP : 2
Format settings, QPel : No
Format settings, GMC : No warppoints
Format settings, Matrix : Custom
Codec ID : XVID
Codec ID/Hint : XviD
Duration : 1h 10mn
Bit rate : 2 079 Kbps
Width : 640 pixels
Height : 480 pixels
Display aspect ratio : 4:3
Frame rate : 25.000 fps
Color space : YUV
Chroma subsampling : 4:2:0
Bit depth : 8 bits
Scan type : Progressive
Compression mode : Lossy
Bits/(Pixel*Frame) : 0.271
Stream size : 1.02 GiB (94%)
Writing library : XviD 73
Audio
ID : 1
Format : AC-3
Format/Info : Audio Coding 3
Mode extension : CM (complete main)
Format settings, Endianness : Big
Codec ID : 2000
Duration : 1h 10mn
Bit rate mode : Constant
Bit rate : 128 Kbps
Channel(s) : 1 channel
Channel positions : Front: C
Sampling rate : 48.0 KHz
Frame rate : 31.250 fps (1536 spf)
Compression mode : Lossy
Stream size : 64.2 MiB (6%)
Alignment : Split accross interleaves
Interleave, duration : 40 ms (1.00 video frame)
Interleave, preload duratio : 500 ms
Релиз группы:


 
Не забывайте говорить Спасибо. Не уходите с раздачи!   
Торрент: Зарегистрирован [13 мар 2018, 18:36] Скачать торрент
Скачать торрент
[ Размер 11.34 КБ / Просмотров 2 ]
Статус:
Проверен
 
.torrent скачан: 0 раз
Хэш: 5aad1025e5e15cc445575786df71c6281a36f3ae
Размер: 1.09 ГБ (1 165 768 704 байт)
Стать Автором раздачи
 
 
Раздал: 0 байт
Скачал: 0 байт
Ратио: Inf.
Сообщения: 487468
Зарегистрирован: 17 апр 2014, 13:57


  • Похожие торренты
    Ответы
    Просмотры
    Последнее сообщение

Вернуться в Кино СССР, Советской России, Российской республики (1917-1991)

Ресурс не предоставляет электронные версии произведений, а занимается лишь коллекционированием и каталогизацией ссылок, присылаемых и публикуемых на форуме нашими читателями. Если вы являетесь правообладателем какого-либо представленного материала и не желаете чтобы ссылка на него находилась в нашем каталоге, свяжитесь с нами и мы незамедлительно удалим её. Файлы для обмена на трекере предоставлены пользователями сайта, и администрация не несёт ответственности за их содержание. Просьба не заливать файлы, защищенные авторскими правами, а также файлы нелегального содержания!
cron