[ATV 3] МакМафия / McMafia / Сезон 1, Эпизод 1-3 (8) (Джеймс Уоткинс) [2018, США, триллер, драма, криминал, WEB-DL HD (1080p)] MVO (LostFilm) + Original

 
 Статистика раздачи 
Размер: 7.32 ГБ   |  Зарегистрирован: 13 мар 2018, 17:03   |   .torrent скачан: 0 раз
Сидеров: 1  [ 0 байт/сек ]     Личеров: 0  [ 0 байт/сек ]  
  

[ATV 3] МакМафия / McMafia / Сезон 1, Эпизод 1-3 (8) (Джеймс Уоткинс) [2018, США, триллер, драма, криминал, WEB-DL HD (1080p)] MVO (LostFilm) + Original

Сообщение Nakazhu » 13 мар 2018, 17:03

МакМафия / McMafia



Год выпуска: 2018
Страна: Великобритания, США
Жанр: триллер, драма, криминал
Продолжительность серии: 38 мин.
Перевод: Многоголосый закадровый перевод
Оригинальная аудиодорожка: Есть
Субтитры: Английские
Режиссёр: Джеймс Уоткинс
Сценарий: Хуссейн Амини, Misha Glenny, Джеймс Уоткинс
Продюсер: Эндрю Босвелл, Кейт Гловер, Игорь Нола
Оператор: Марк Паттен
Композитор: Том Ходж, Franz Kirmann
Художник: Ричард Буллок, Иван Веляца, Чармиан Адамс
Монтаж: Стюарт Газзард, Джон Харрис
В ролях: Джеймс Нортон, Дэвид Стрэтэйрн, Джульет Райлэнс, Алексей Серебряков, Мария Шукшина, Ошри Коэн, Мераб Нинидзе, Клиффорд Сэмюэл, Юваль Шарф, Кеми-Бо Джейкобс
Описание:
Алекс Гудман, сын русских эмигрантов, пытается выйти из тени своей бывшей мафиозной семейки и создать личный бизнес и семью с подругой Ребеккой. Но прошлое семьи даёт о себе знать, и Алекс вынужден внедриться в преступный мир, чтобы защитить тех, кого любит.
Качество исходника: WEB-DL 1080p (iTunes US)
Качество: WEB-DL
Тип: 1080p
Контейнер: m4v
Видео: 1916 x 1076 at 23.976 fps, MPEG-4 AVC, ~5000 kbps avg
Аудио: Lostfilm - Русский - закадровый: MPEG-4 AAC LC, 2.0, ~ 160 kbps, 48000 Hz / AC-3, 5.1, 384 kbps, 48000 Hz
Аудио: Английский (США): MPEG-4 AAC LC, 2.0, ~ 160 kbps, 48000 Hz / AC-3, 5.1, 384 kbps, 48000 Hz
Субтитры: Английский - SDH для глухих: TX3G
Субтитры: Английский - скрытые субтитры: CEA-608
МакМафия, Сезон 1

McMafia, Season 1
Eng: After a tragic event, Russian exile Alex Godman is drawn into the murky world of global crime as he tries to protect his family from their dark past.
Eng: Semiyon convinces Alex into a venture designed to harm Vadim's business in Prague. Meanwhile, a young girl is taken on a very different journey.
Eng: A mysterious figure reaches out to Alex, who is not all he seems. While Dmitri deals with grief, Oksana learns of a secret that could rock the family.
Код:
Код: Выделить всё
Name: Episode 101
Artist: McMafia
Album Artist: McMafia
Album: McMafia, Season 1
Media Kind: 10
HD Video:2
Genre: Drama
Release Date: 2018-02-26T08:00:00Z
Track #: 1/8
Disk #: 1/1
TV Show: McMafia
TV Episode #: 1
TV Network: AMC
TV Episode ID: 101
TV Season: 1
Description: After a tragic event, Russian exile Alex Godman is drawn into the murky world of global crime as he
Long Description: After a tragic event, Russian exile Alex Godman is drawn into the murky world of global crime as he tries to protect his family from their dark past.
Series Description: McMafia journeys through a labyrinth of international criminals, money launderers, corrupt politicians and ruthless intelligence agencies.
Content Rating: 0
Copyright: В© Cuba Pictures Limited MMXVIII.  All Rights Reserved.
content ID: 1352605831
artist ID: 1338912744
playlist ID: 1338912745
genre ID: 4001
XID: amc:vendor_id:AMC_MCMAFIA_101
iTunes Country: 143441
Sort Name: Episode 101
Sort Artist: McMafia
Sort Album: McMafia, Season 1

Код:
Код: Выделить всё
General
Complete name                            : 01 Episode 101 (1080p HD).m4v
Format                                   : MPEG-4
Codec ID                                 : M4V  (M4V /mp42/isom)
File size                                : 2.51 GiB
Duration                                 : 57 min 22 s
Overall bit rate mode                    : Variable
Overall bit rate                         : 6 255 kb/s
Collection                               : McMafia
Season                                   : 1
Album                                    : McMafia, Season 1
Album/Sorted by                          : McMafia, Season 1
Album/Performer                          : McMafia
Part                                     : 1
Part/Position                            : 1
Part/Total                               : 1
Track name                               : Episode 101
Track name/Position                      : 1
Track name/Total                         : 8
Performer                                : McMafia
Performer/Sorted by                      : McMafia
Genre                                    : Drama
ContentType                              : TV Show
Description                              : After a tragic event, Russian exile Alex Godman is drawn into the murky world of global crime as he / McMafia journeys through a labyrinth of international criminals, money launderers, corrupt politicians and ruthless intelligence agencies.
Recorded date                            : UTC 2018-02-26 08:00:00
Encoded date                             : UTC 2018-02-24 06:25:55
Tagged date                              : UTC 2018-02-24 06:26:23
Copyright                                : В© Cuba Pictures Limited MMXVIII.  All Rights Reserved.
Cover                                    : Yes
Rating                                   : None
AppleStoreCatalogID                      : 1352605831
AlbumTitleID                             : 1338912744
PlayListID                               : 1338912745
GenreID                                  : 4001
Part_ID                                  : 101
Title/Sort                               : Episode 101
ContentRating                            : us-tv|TV-14|500|
LongDescription                          : After a tragic event, Russian exile Alex Godman is drawn into the murky world of global crime as he tries to protect his family from their dark past.
TVNetworkName                            : AMC
Vendor                                   : amc:vendor_id:AMC_MCMAFIA_101
Flavour                                  : 18:1080p
AppleStoreCountry                        : United States
Video
ID                                       : 1
Format                                   : AVC
Format/Info                              : Advanced Video Codec
Format profile                           : High@L4
Format settings                          : CABAC / 4 Ref Frames
Format settings, CABAC                   : Yes
Format settings, RefFrames               : 4 frames
Codec ID                                 : avc1
Codec ID/Info                            : Advanced Video Coding
Duration                                 : 57 min 22 s
Bit rate                                 : 5 210 kb/s
Maximum bit rate                         : 13.0 Mb/s
Width                                    : 1 916 pixels
Height                                   : 1 076 pixels
Display aspect ratio                     : 16:9
Frame rate mode                          : Constant
Frame rate                               : 23.976 (23976/1000) FPS
Color space                              : YUV
Chroma subsampling                       : 4:2:0
Bit depth                                : 8 bits
Scan type                                : Progressive
Bits/(Pixel*Frame)                       : 0.105
Stream size                              : 2.09 GiB (83%)
Title                                    : Core Media Video
Language                                 : English
Encoded date                             : UTC 2018-02-24 06:25:55
Tagged date                              : UTC 2018-02-24 06:26:23
Color range                              : Limited
Color primaries                          : BT.709
Transfer characteristics                 : BT.709
Matrix coefficients                      : BT.709
Audio #1
ID                                       : 2
Format                                   : AAC
Format/Info                              : Advanced Audio Codec
Format profile                           : LC
Codec ID                                 : mp4a-40-2
Duration                                 : 57 min 22 s
Bit rate mode                            : Variable
Bit rate                                 : 122 kb/s
Maximum bit rate                         : 186 kb/s
Channel(s)                               : 2 channels
Channel positions                        : Front: L R
Sampling rate                            : 48.0 kHz
Frame rate                               : 46.875 FPS (1024 SPF)
Compression mode                         : Lossy
Stream size                              : 50.1 MiB (2%)
Title                                    : Core Media Audio
Language                                 : Russian
Default                                  : Yes
Alternate group                          : 1
Encoded date                             : UTC 2018-02-24 06:25:55
Tagged date                              : UTC 2018-02-24 06:26:23
Fallback From                            : 3
tagc                                     : public.translation.voice-over
Audio #2
ID                                       : 3
Format                                   : AC-3
Format/Info                              : Audio Coding 3
Format settings, Endianness              : Big
Codec ID                                 : ac-3
Duration                                 : 57 min 22 s
Bit rate mode                            : Constant
Bit rate                                 : 384 kb/s
Maximum bit rate                         : 406 kb/s
Channel(s)                               : 6 channels
Channel positions                        : Front: L C R, Side: L R, LFE
Sampling rate                            : 48.0 kHz
Frame rate                               : 31.250 FPS (1536 SPF)
Bit depth                                : 16 bits
Compression mode                         : Lossy
Stream size                              : 158 MiB (6%)
Title                                    : Core Media Audio
Language                                 : Russian
Service kind                             : Complete Main
Default                                  : Inherited From: 2
Alternate group                          : 1
Encoded date                             : UTC 2018-02-24 06:25:55
Tagged date                              : UTC 2018-02-24 06:26:23
Fallback To                              : 2
tagc                                     : public.translation.voice-over
Audio #3
ID                                       : 4
Format                                   : AAC
Format/Info                              : Advanced Audio Codec
Format profile                           : LC
Codec ID                                 : mp4a-40-2
Duration                                 : 57 min 22 s
Bit rate mode                            : Variable
Bit rate                                 : 144 kb/s
Maximum bit rate                         : 236 kb/s
Channel(s)                               : 2 channels
Channel positions                        : Front: L R
Sampling rate                            : 48.0 kHz
Frame rate                               : 46.875 FPS (1024 SPF)
Compression mode                         : Lossy
Stream size                              : 59.5 MiB (2%)
Title                                    : Core Media Audio
Language                                 : English
Default                                  : No
Alternate group                          : 1
Encoded date                             : UTC 2018-02-24 06:25:55
Tagged date                              : UTC 2018-02-24 06:26:23
Fallback From                            : 6
Audio #4
ID                                       : 6
Format                                   : AC-3
Format/Info                              : Audio Coding 3
Format settings, Endianness              : Big
Codec ID                                 : ac-3
Duration                                 : 57 min 22 s
Bit rate mode                            : Constant
Bit rate                                 : 384 kb/s
Maximum bit rate                         : 406 kb/s
Channel(s)                               : 6 channels
Channel positions                        : Front: L C R, Side: L R, LFE
Sampling rate                            : 48.0 kHz
Frame rate                               : 31.250 FPS (1536 SPF)
Bit depth                                : 16 bits
Compression mode                         : Lossy
Stream size                              : 158 MiB (6%)
Title                                    : Core Media Audio
Language                                 : English
Service kind                             : Complete Main
Default                                  : No
Alternate group                          : 1
Encoded date                             : UTC 2018-02-24 06:25:55
Tagged date                              : UTC 2018-02-24 06:26:23
Fallback To                              : 4
Text #1
ID                                       : 5-CC1
Format                                   : EIA-608
Muxing mode                              : Final Cut
Codec ID                                 : c608
Duration                                 : 57 min 14 s
Bit rate mode                            : Constant
Stream size                              : 0.00 Byte (0%)
Title                                    : Core Media Closed Caption
Language                                 : English
Forced                                   : No
Encoded date                             : UTC 2018-02-24 06:25:55
Tagged date                              : UTC 2018-02-24 06:26:23
CaptionServiceName                       : CC1
Text #2
ID                                       : 7
Format                                   : Timed Text
Muxing mode                              : sbtl
Codec ID                                 : tx3g
Duration                                 : 57 min 14 s
Bit rate mode                            : Variable
Bit rate                                 : 63 b/s
Stream size                              : 26.4 KiB (0%)
Title                                    : Core Media Subtitle
Language                                 : English
Default                                  : No
Forced                                   : No
Alternate group                          : 2
Encoded date                             : UTC 2018-02-24 06:25:55
Tagged date                              : UTC 2018-02-24 06:26:23
tagc                                     : public.accessibility.transcribes-spoken-dialog

[/spoiler]
 
Не забывайте говорить Спасибо. Не уходите с раздачи!   
Торрент: Зарегистрирован [13 мар 2018, 17:03] Для скачивания .torrent
необходима регистрация
Или скачать с помощью
MediaGet
Статус:
Проверен
 
.torrent скачан: 0 раз
Хэш: 4a9ef8f77b1e0e449690bac34497def3f80ffe66
Размер: 7.32 ГБ (7 854 733 148 байт)
Стать Автором раздачи
 
 
Раздал: 0 байт
Скачал: 0 байт
Ратио: Inf.
Сообщения: 471607
Зарегистрирован: 17 апр 2014, 13:57


  • Похожие торренты
    Ответы
    Просмотры
    Последнее сообщение

Вернуться в Сериалы HD для Apple TV

Ресурс не предоставляет электронные версии произведений, а занимается лишь коллекционированием и каталогизацией ссылок, присылаемых и публикуемых на форуме нашими читателями. Если вы являетесь правообладателем какого-либо представленного материала и не желаете чтобы ссылка на него находилась в нашем каталоге, свяжитесь с нами и мы незамедлительно удалим её. Файлы для обмена на трекере предоставлены пользователями сайта, и администрация не несёт ответственности за их содержание. Просьба не заливать файлы, защищенные авторскими правами, а также файлы нелегального содержания!
cron