Бег на месте / Running on Empty (Сидни Люмет / Sidney Lumet) [1988, США, драма, BDRip] DVO

 
 Статистика раздачи 
Размер: 1.46 ГБ   |  Зарегистрирован: 11 мар 2018, 16:46   |   .torrent скачан: 0 раз
Сидеров: 1  [ 0 байт/сек ]     Личеров: 0  [ 0 байт/сек ]  
  

Бег на месте / Running on Empty (Сидни Люмет / Sidney Lumet) [1988, США, драма, BDRip] DVO

Сообщение Nakazhu » 11 мар 2018, 16:46

Бег на месте / Running on Empty
Страна: США
Жанр
: драма
Год выпуска: 1988
Продолжительность: 01:56:15
Перевод: Профессиональный (двухголосый закадровый)
Субтитры: нет
Режиссер: Сидни Люмет / Sidney Lumet
В ролях: Кристин Лати, Ривер Феникс, Джадд Хирш, Йонас Эйбри, Марта Плимптон, Эд Краули, Л. М. Кит Карсон, Стивен Хилл, Аугуста Дэбни, Дэвид Маргулис
Описание: 17-летний Денни, старший сын в семье Энни и Артура Поуп. Вот уже 15 лет семейство Поупов живет под вымышленными именами. Когда-то, в бурные 60-е, родители Денни под воздействием больших перемен в обществе и политике стали активистами антивоенного движения и попали в «черные списки». С тех пор у них началась нелегальная жизнь. Но сыновья подросли, и кочевать с места на место становится все сложнее. К тому же в Денни вдруг проявляется врожденный талант пианиста, и он получает приглашение из престижной музыкальной школы. Юноше необходим инструмент, который семья не может себе позволить. Ведь недалек тот день, когда снова придется сниматься с насиженного места. А у Денни — первая любовь. Он страдает, понимая, что его скрытность серьeзно осложняет отношения с Лорной. Молодому человеку предстоит нелегкий выбор: между обожаемой семьей и возможностью быть свободным, идти своим путем.
Качество видео: BDRip
Формат видео
: AVI
Видео: 704x400 (1.76:1), 23.976 fps, XviD build 73 ~1592 kbps avg, 0.24 bit/pixel
Аудио: 48 kHz, AC3 Dolby Digital, 2/0 (L,R) ch, ~192 kbps
General
Complete name : H:\Running.on.Empty.1988.bdrip_[1.45]_[teko].avi
Format : AVI
Format/Info : Audio Video Interleave
File size : 1.46 GiB
Duration : 1h 56mn
Overall bit rate : 1 794 Kbps
Writing application : VirtualDubMod 1.5.10.3 | www.virtualdub-fr.org || (build 2550/release)
Writing library : VirtualDubMod build 2550/release
Video
ID : 0
Format : MPEG-4 Visual
Format profile : Advanced Simple@L5
Format settings, BVOP : 2
Format settings, QPel : No
Format settings, GMC : No warppoints
Format settings, Matrix : Custom
Codec ID : XVID
Codec ID/Hint : XviD
Duration : 1h 56mn
Bit rate : 1 593 Kbps
Width : 704 pixels
Height : 400 pixels
Display aspect ratio : 16:9
Frame rate : 23.976 (23976/1000) fps
Color space : YUV
Chroma subsampling : 4:2:0
Bit depth : 8 bits
Scan type : Progressive
Compression mode : Lossy
Bits/(Pixel*Frame) : 0.236
Stream size : 1.29 GiB (89%)
Writing library : XviD 73
Audio
ID : 1
Format : AC-3
Format/Info : Audio Coding 3
Mode extension : CM (complete main)
Format settings, Endianness : Big
Codec ID : 2000
Duration : 1h 56mn
Bit rate mode : Constant
Bit rate : 192 Kbps
Channel(s) : 2 channels
Channel positions : Front: L R
Sampling rate : 48.0 KHz
Frame rate : 31.250 fps (1536 spf)
Compression mode : Lossy
Stream size : 160 MiB (11%)
Alignment : Split accross interleaves
Interleave, duration : 42 ms (1.00 video frame)
Interleave, preload duratio : 500 ms
Релиз группы:


 
Не забывайте говорить Спасибо. Не уходите с раздачи!   
Торрент: Зарегистрирован [11 мар 2018, 16:46] Скачать торрент
Скачать торрент
[ Размер 15.05 КБ / Просмотров 4 ]
Статус:
Проверен
 
.torrent скачан: 0 раз
Хэш: 4d7dee3b89ed3fa9df0cdb576ba881f6c1c357e2
Размер: 1.46 ГБ (1 564 618 752 байт)
Стать Автором раздачи
 
 
Раздал: 0 байт
Скачал: 0 байт
Ратио: Inf.
Сообщения: 487468
Зарегистрирован: 17 апр 2014, 13:57


  • Похожие торренты
    Ответы
    Просмотры
    Последнее сообщение

Вернуться в Зарубежные фильмы до 1990 года

Ресурс не предоставляет электронные версии произведений, а занимается лишь коллекционированием и каталогизацией ссылок, присылаемых и публикуемых на форуме нашими читателями. Если вы являетесь правообладателем какого-либо представленного материала и не желаете чтобы ссылка на него находилась в нашем каталоге, свяжитесь с нами и мы незамедлительно удалим её. Файлы для обмена на трекере предоставлены пользователями сайта, и администрация не несёт ответственности за их содержание. Просьба не заливать файлы, защищенные авторскими правами, а также файлы нелегального содержания!
cron