Юля Лысенко (Юлика, Фабрика звёзд 6) в программе "Вечерний флирт" [2009-2010, Интерактивное теле-шоу, DVB]

 
 Статистика раздачи 
Размер: 39.86 ГБ   |  Зарегистрирован: 10 мар 2018, 09:30   |   .torrent скачан: 0 раз
Сидеров: 1  [ 0 байт/сек ]     Личеров: 0  [ 0 байт/сек ]  
  

Юля Лысенко (Юлика, Фабрика звёзд 6) в программе "Вечерний флирт" [2009-2010, Интерактивное теле-шоу, DVB]

Сообщение Nakazhu » 10 мар 2018, 09:30

Юля Лысенко (Юлика, Фабрика звёзд 6) в программе "Вечерний флирт" (канал ру-тв) 42 выпуска
Год выпуска: 2009-2010
Страна: Россия
Жанр: Интерактивное теле-шоу
Перевод: Не требуется
Русские субтитры: нет
Продолжительность: ~40 минут каждый выпуск
Описание: Красивая, сексуальная, обаятельная, обворожительная, божественная, лучезарная, бесподобная, бьютифульная и просто офигительно няшная Юля Лысенко предстаёт перед нами во всей своей, разрушающей воображение, неземной красе в разных, расшатывающих самые невозмутимые человеческие умы, образах в обалденных, затмевающих разум и помутняющих рассудок, нарядах с декольте до колена в качестве ведущей программы
Дополнительная информация: Параллельно с демонстрацией самой себя широкой публике, Юля в прямом эфире читает СМС и отвечает на платные звонки телезрителей, а между этим в эфире идут Российские музыкальные видео-клипы.
Все выпуски разрезаны на части "от клипа до клипа". Все клипы вырезаны. Оставлена только Юля. В связи с таким обрезанием, хронометраж каждого разрезанного мной выпуска сократился с 1:40 до ~30-40 минут в зависимости от количества звонков в прямой эфир. Примерно с сентября 2009 хронометраж оригинального эфира увеличился с 1:40 до 2:00. В каком-то из эфиров Юля сама об этом говорила. Отсюда такой разнос ~30-40 минут. Начало выпуска "(2010) RUTV - July 08 00 00 50" записалось с глюками и там не хватает нескольких частей (F@#@%ng ProgDVB 6.x).
Качество: DVB
Формат: MPEG-PS, MPEG-TS
Видео кодек: MPEG2
Аудио кодек: MPEG Audio Layer 2
Видео: MPEG-2, 720 x 576, 25 fps, ~3400 kbps, 0.328
Аудио: MPEG Audio Layer 2, 48 kHz, 2 ch, 256 kbps
General
Complete name : J:\Юля Лысенко\Юля Лысенко - Вечерний флирт\Матёрые\(2009) RUTV - December 01 01 00 01_1.mpg
Format : MPEG-PS
File size : 50.0 MiB
Duration : 1mn 52s
Overall bit rate mode : Variable
Overall bit rate : 3 734 Kbps
Writing library : (c) 1998-2008 Womble Multimedia, Inc. / MPEG Video Wizard (12/2008) / Feb 12 2009
Video
ID : 224 (0xE0)
Format : MPEG Video
Format version : Version 2
Format profile : Main@Main
Format settings, BVOP : Yes
Format settings, Matrix : Custom
Duration : 1mn 52s
Bit rate mode : Variable
Bit rate : 3 400 Kbps
Width : 720 pixels
Height : 576 pixels
Display aspect ratio : 4:3
Frame rate : 25.000 fps
Standard : PAL
Color space : YUV
Chroma subsampling : 4:2:0
Bit depth : 8 bits
Scan type : Interlaced
Scan order : Top Field First
Compression mode : Lossy
Bits/(Pixel*Frame) : 0.328
Stream size : 45.6 MiB (91%)
Writing library : (c) 1998-2008 Womble Multimedia, Inc. / MPEG Video Wizard (12/2008) / Feb 12 2009
Audio
ID : 192 (0xC0)
Format : MPEG Audio
Format version : Version 1
Format profile : Layer 2
Duration : 1mn 52s
Bit rate mode : Constant
Bit rate : 256 Kbps
Channel(s) : 2 channels
Sampling rate : 48.0 KHz
Compression mode : Lossy
Delay relative to video : -40ms
Stream size : 3.43 MiB (7%)

Внимание! Раздача ведётся путём добавления новых серий; при каждом добавлении создаётся новый торрент. Чтобы начать докачку новой серии, пользователям необходимо сделать следующее:
(1) остановить скачивание,
(2) удалить старый торрент у себя из клиента (старые серии удалять не надо),
(3) скачать новый торрент и запустить его у себя в клиенте вместо старого, при этом указать клиенту путь в старую папку куда и должно происходить скачивание новых серий.
Ваш клиент при этом должен произвести хеширование (проверку) старой папки (если не производит сам - помогите ему сделать это), и будет докачивать только те серии которых у вас ещё нет. Старые серии при этом не удаляются, а продолжают раздаваться!
Eсли вы уже удалили старые серии, то предотвратить повторную закачку старых серий можно, отжав галочку в соответствующих местах при запуске нового торрента. По возможности, желательно не удалять старые серии как можно дольше чтобы релизёр не столько продолжал раздавать старые серии, а смог сконцентрироваться на новых.
Внимание! Обновлено 10.03.2018! Удалён файл thumbs.db, который не давал захешировать раздачу на 100%
Скачавших прошу не уходить с раздачи!
 
Не забывайте говорить Спасибо. Не уходите с раздачи!   
Торрент: Зарегистрирован [10 мар 2018, 09:30] Скачать торрент
Скачать торрент
[ Размер 254.25 КБ / Просмотров 20 ]
Статус:
Проверен
 
.torrent скачан: 0 раз
Хэш: ca4c841fe40bdddb3682af9852261aef2e1fae36
Размер: 39.86 ГБ (42 803 437 678 байт)
Стать Автором раздачи
 
 
Раздал: 0 байт
Скачал: 0 байт
Ратио: Inf.
Сообщения: 487468
Зарегистрирован: 17 апр 2014, 13:57


  • Похожие торренты
    Ответы
    Просмотры
    Последнее сообщение

Вернуться в Музыкальные шоу

Ресурс не предоставляет электронные версии произведений, а занимается лишь коллекционированием и каталогизацией ссылок, присылаемых и публикуемых на форуме нашими читателями. Если вы являетесь правообладателем какого-либо представленного материала и не желаете чтобы ссылка на него находилась в нашем каталоге, свяжитесь с нами и мы незамедлительно удалим её. Файлы для обмена на трекере предоставлены пользователями сайта, и администрация не несёт ответственности за их содержание. Просьба не заливать файлы, защищенные авторскими правами, а также файлы нелегального содержания!
cron