(JPop, JRock) [CD] Aimer (エメ) - daydream - 2016, FLAC (tracks+.cue), lossless

 
 Статистика раздачи 
Размер: 405.48 МБ   |  Зарегистрирован: 06 мар 2018, 14:41   |   .torrent скачан: 0 раз
Сидеров: 1  [ 0 байт/сек ]     Личеров: 0  [ 0 байт/сек ]  
  

(JPop, JRock) [CD] Aimer (エメ) - daydream - 2016, FLAC (tracks+.cue), lossless

Сообщение Nakazhu » 06 мар 2018, 14:41

Aimer - daydream
Жанр: JPop, JRock
Носитель: CD
Страна-производитель диска (релиза): Япония
Год издания: 2016
Издатель (лейбл): SME Records
Номер по каталогу: SECL-1987
Страна исполнителя (группы): Япония
Аудиокодек: FLAC (*.flac)
Тип рипа: tracks+.cue
Битрейт аудио: lossless
Продолжительность: 00:57:28
Источник (релизер): tsdm (register25)
Наличие сканов в содержимом раздачи: нет
Треклист:
01. insane dream
02. ninelie feat. chelly (EGOIST)
03. twoface
04. Higher Ground
05. for Lonely feat. Abe Mao / for ロンリー
06. Chouchou Musubi / 蝶々結び
07. Kataomoi / カタオモイ
08. Hz / ヘルツ
09. Kowairo / 声色
10. closer
11. Falling Alone
12. us
13. Stars in the rain
Код: Выделить всё
X Lossless Decoder version 20141129 (148.1)
XLD extraction logfile from 2016-09-22 15:16:52 +0800
Various Artists / daydream
Used drive : HL-DT-ST DVDRW  GS31N (revision TA17)
Media type : Pressed CD
Ripper mode             : XLD Secure Ripper
Disable audio cache     : OK for the drive with a cache less than 1375KiB
Make use of C2 pointers : NO
Read offset correction  : 667
Max retry count         : 20
Gap status              : Analyzed, Appended
TOC of the extracted CD
     Track |   Start  |  Length  | Start sector | End sector
    ---------------------------------------------------------
        1  | 00:00:00 | 04:13:09 |         0    |    18983
        2  | 04:13:09 | 04:21:58 |     18984    |    38616
        3  | 08:34:67 | 03:05:06 |     38617    |    52497
        4  | 11:39:73 | 05:14:14 |     52498    |    76061
        5  | 16:54:12 | 04:51:43 |     76062    |    97929
        6  | 21:45:55 | 05:05:25 |     97930    |   120829
        7  | 26:51:05 | 03:27:27 |    120830    |   136381
        8  | 30:18:32 | 04:49:02 |    136382    |   158058
        9  | 35:07:34 | 04:57:34 |    158059    |   180367
       10  | 40:04:68 | 03:32:51 |    180368    |   196318
       11  | 43:37:44 | 04:13:23 |    196319    |   215316
       12  | 47:50:67 | 04:34:62 |    215317    |   235928
       13  | 52:25:54 | 05:02:20 |    235929    |   258598
AccurateRip Summary
    Disc not found in AccurateRip DB.
All Tracks
    Statistics
        Read error                           : 0
        Jitter error (maybe fixed)           : 0
        Retry sector count                   : 3
        Damaged sector count                 : 0
Track 01
    Filename : /Users/sheng92/Music/01 Aimer - insane dream.wav
    Pre-gap length : 00:02:00
    CRC32 hash               : 924A4394
    CRC32 hash (skip zero)   : F9476A8C
    AccurateRip v1 signature : 0F59C5EC
    AccurateRip v2 signature : 02050837
        ->Track not present in AccurateRip database.
    Statistics
        Read error                           : 0
        Jitter error (maybe fixed)           : 0
        Retry sector count                   : 0
        Damaged sector count                 : 0
Track 02
    Filename : /Users/sheng92/Music/02 Aimer with chelly - ninelie.wav
    Pre-gap length : 00:01:24
    CRC32 hash               : F6F558C4
    CRC32 hash (skip zero)   : C3ED617F
    AccurateRip v1 signature : CE4D1B63
    AccurateRip v2 signature : 17FDFE08
        ->Track not present in AccurateRip database.
    Statistics
        Read error                           : 0
        Jitter error (maybe fixed)           : 0
        Retry sector count                   : 0
        Damaged sector count                 : 0
Track 03
    Filename : /Users/sheng92/Music/03 Aimer - twoface.wav
    Pre-gap length : 00:01:24
    CRC32 hash               : 070C98EC
    CRC32 hash (skip zero)   : 75E7E6C7
    AccurateRip v1 signature : 3C38CED9
    AccurateRip v2 signature : 92B6D206
        ->Track not present in AccurateRip database.
    Statistics
        Read error                           : 0
        Jitter error (maybe fixed)           : 0
        Retry sector count                   : 0
        Damaged sector count                 : 0
Track 04
    Filename : /Users/sheng92/Music/04 Aimer - Higher Ground.wav
    CRC32 hash               : E0516860
    CRC32 hash (skip zero)   : 792BF1FA
    AccurateRip v1 signature : 7C3BF763
    AccurateRip v2 signature : 872A49BC
        ->Track not present in AccurateRip database.
    Statistics
        Read error                           : 0
        Jitter error (maybe fixed)           : 0
        Retry sector count                   : 0
        Damaged sector count                 : 0
Track 05
    Filename : /Users/sheng92/Music/05 Aimer Feat. 阿部真央 - for ロンリー.wav
    Pre-gap length : 00:01:62
    CRC32 hash               : 654983FB
    CRC32 hash (skip zero)   : C048BC58
    AccurateRip v1 signature : EA97E900
    AccurateRip v2 signature : 640FCBF4
        ->Track not present in AccurateRip database.
    Statistics
        Read error                           : 0
        Jitter error (maybe fixed)           : 0
        Retry sector count                   : 0
        Damaged sector count                 : 0
Track 06
    Filename : /Users/sheng92/Music/06 Aimer - 蝶々結び.wav
    Pre-gap length : 00:01:62
    CRC32 hash               : B2E0A548
    CRC32 hash (skip zero)   : 233CF52F
    AccurateRip v1 signature : 7D5D7458
    AccurateRip v2 signature : 84052C28
        ->Track not present in AccurateRip database.
    Statistics
        Read error                           : 0
        Jitter error (maybe fixed)           : 0
        Retry sector count                   : 1
        Damaged sector count                 : 0
Track 07
    Filename : /Users/sheng92/Music/07 Aimer - カタオモイ.wav
    Pre-gap length : 00:02:24
    CRC32 hash               : EAA769D0
    CRC32 hash (skip zero)   : 3576263B
    AccurateRip v1 signature : 059141F0
    AccurateRip v2 signature : E0D9CDD5
        ->Track not present in AccurateRip database.
    Statistics
        Read error                           : 0
        Jitter error (maybe fixed)           : 0
        Retry sector count                   : 0
        Damaged sector count                 : 0
Track 08
    Filename : /Users/sheng92/Music/08 Aimer - Hz.wav
    Pre-gap length : 00:01:24
    CRC32 hash               : C7DBAA7D
    CRC32 hash (skip zero)   : 2ACC1824
    AccurateRip v1 signature : 36E3D8BE
    AccurateRip v2 signature : 54C40277
        ->Track not present in AccurateRip database.
    Statistics
        Read error                           : 0
        Jitter error (maybe fixed)           : 0
        Retry sector count                   : 1
        Damaged sector count                 : 0
Track 09
    Filename : /Users/sheng92/Music/09 Aimer - 声色.wav
    Pre-gap length : 00:01:24
    CRC32 hash               : 0AD3DC2B
    CRC32 hash (skip zero)   : 1675ACD3
    AccurateRip v1 signature : 92336290
    AccurateRip v2 signature : F3121E71
        ->Track not present in AccurateRip database.
    Statistics
        Read error                           : 0
        Jitter error (maybe fixed)           : 0
        Retry sector count                   : 0
        Damaged sector count                 : 0
Track 10
    Filename : /Users/sheng92/Music/10 Aimer - closer.wav
    CRC32 hash               : 84D7F0F9
    CRC32 hash (skip zero)   : 5FED7E35
    AccurateRip v1 signature : 7CD159BE
    AccurateRip v2 signature : 7064CB8C
        ->Track not present in AccurateRip database.
    Statistics
        Read error                           : 0
        Jitter error (maybe fixed)           : 0
        Retry sector count                   : 0
        Damaged sector count                 : 0
Track 11
    Filename : /Users/sheng92/Music/11 Aimer - Falling Alone.wav
    Pre-gap length : 00:01:61
    CRC32 hash               : BEABC72E
    CRC32 hash (skip zero)   : 101ECC1A
    AccurateRip v1 signature : 28145628
    AccurateRip v2 signature : 29C00679
        ->Track not present in AccurateRip database.
    Statistics
        Read error                           : 0
        Jitter error (maybe fixed)           : 0
        Retry sector count                   : 0
        Damaged sector count                 : 0
Track 12
    Filename : /Users/sheng92/Music/12 Aimer - us.wav
    Pre-gap length : 00:01:61
    CRC32 hash               : 58A4B250
    CRC32 hash (skip zero)   : EF399EDA
    AccurateRip v1 signature : 13DAE028
    AccurateRip v2 signature : E994D629
        ->Track not present in AccurateRip database.
    Statistics
        Read error                           : 0
        Jitter error (maybe fixed)           : 0
        Retry sector count                   : 0
        Damaged sector count                 : 0
Track 13
    Filename : /Users/sheng92/Music/13 Aimer - Stars in the rain.wav
    CRC32 hash               : E109EFCA
    CRC32 hash (skip zero)   : AEA48D58
    AccurateRip v1 signature : D5FBAE5F
    AccurateRip v2 signature : 71C2E7B6
        ->Track not present in AccurateRip database.
    Statistics
        Read error                           : 0
        Jitter error (maybe fixed)           : 0
        Retry sector count                   : 1
        Damaged sector count                 : 0
No errors occurred
End of status report
Код: Выделить всё
FILE "01 insane dream.flac" WAVE
  TRACK 01 AUDIO
    INDEX 01 00:00:00
FILE "02 ninelie.flac" WAVE
  TRACK 02 AUDIO
    INDEX 01 00:00:00
FILE "03 twoface.flac" WAVE
  TRACK 03 AUDIO
    INDEX 01 00:00:00
FILE "04 Higher Ground.flac" WAVE
  TRACK 04 AUDIO
    INDEX 01 00:00:00
FILE "05 for ロンリー.flac" WAVE
  TRACK 05 AUDIO
    INDEX 01 00:00:00
FILE "06 蝶々結び.flac" WAVE
  TRACK 06 AUDIO
    INDEX 01 00:00:00
FILE "07 カタオモイ.flac" WAVE
  TRACK 07 AUDIO
    INDEX 01 00:00:00
FILE "08 Hz.flac" WAVE
  TRACK 08 AUDIO
    INDEX 01 00:00:00
FILE "09 声色.flac" WAVE
  TRACK 09 AUDIO
    INDEX 01 00:00:00
FILE "10 closer.flac" WAVE
  TRACK 10 AUDIO
    INDEX 01 00:00:00
FILE "11 Falling Alone.flac" WAVE
  TRACK 11 AUDIO
    INDEX 01 00:00:00
FILE "12 us.flac" WAVE
  TRACK 12 AUDIO
    INDEX 01 00:00:00
FILE "13 Stars in the rain.flac" WAVE
  TRACK 13 AUDIO
    INDEX 01 00:00:00
 
Не забывайте говорить Спасибо. Не уходите с раздачи!   
Торрент: Зарегистрирован [06 мар 2018, 14:41] Скачать торрент
Скачать торрент
[ Размер 17.05 КБ / Просмотров 5 ]
Статус:
Проверен
 
.torrent скачан: 0 раз
Хэш: 63ba2a433928b6cc09c9cc9af5881f07a01213bd
Размер: 405.48 МБ (425 179 842 байт)
Стать Автором раздачи
 
 
Раздал: 0 байт
Скачал: 0 байт
Ратио: Inf.
Сообщения: 487468
Зарегистрирован: 17 апр 2014, 13:57


  • Похожие торренты
    Ответы
    Просмотры
    Последнее сообщение

Вернуться в Восточноазиатская поп-музыка (lossless)

Ресурс не предоставляет электронные версии произведений, а занимается лишь коллекционированием и каталогизацией ссылок, присылаемых и публикуемых на форуме нашими читателями. Если вы являетесь правообладателем какого-либо представленного материала и не желаете чтобы ссылка на него находилась в нашем каталоге, свяжитесь с нами и мы незамедлительно удалим её. Файлы для обмена на трекере предоставлены пользователями сайта, и администрация не несёт ответственности за их содержание. Просьба не заливать файлы, защищенные авторскими правами, а также файлы нелегального содержания!
cron