Норвег (Алена Званцова) [2015, комедия, WEB-DLRip]

 
 Статистика раздачи 
Размер: 1.46 ГБ   |  Зарегистрирован: 05 мар 2018, 14:06   |   .torrent скачан: 0 раз
Сидеров: 1  [ 0 байт/сек ]     Личеров: 0  [ 0 байт/сек ]  
  

Норвег (Алена Званцова) [2015, комедия, WEB-DLRip]

Сообщение Nakazhu » 05 мар 2018, 14:06

Норвег
Жанр: комедия
Год выпуска: 2015
Продолжительность: 01:46:34
Режиссёр: Алена Званцова
В ролях: Евгений Миронов, Северия Янушаускайте, Ксения Раппопорт, Дмитрий Марьянов, Витас Эйзенах, Анна Геллер, Гэ Ян, Ольга Мукукенова, Александр Новин, Роза Хайруллина, Сабина Ахмедова, Игорь Гордин, Андрей Носков, Виталий Коваленко, Дмитрий Поднозов, Евгений Антропов, Сергей Бызгу, Мээрикан Мирзалиева, Ализа Абдиева, Райхон Джуманиязова, Егор Рембетти

Описание: Как снег на голову москвича Кириллова сваливается руководство клининговым агентством «Настенька», состоящим целиком из мигранток-азиаток. Ситуация осложняется тем, что Кириллов планирует уехать в Норвегию и ждет в гости невесту — типичную европейку с весьма жесткими понятиями о свободе и толерантности. Мысль о том, что она узнает об эксплуатации «женщин Востока» приводит его в ужас и заставляет всячески изворачиваться, скрывая «гарем»…

Sample
Качество видео: WEB-DLRip
Формат видео: AVI
Видео: 720x384 (1.85:1), 25 fps, XviD build 73 ~1760 kbps avg, 0.26 bit/pixel
Аудио: 48 kHz, AC3 Dolby Digital, 2/0 (L,R) ch, ~192 kbps
General
Complete name : D:\Norveg.2015.WEB-DLRip.avi
Format : AVI
Format/Info : Audio Video Interleave
File size : 1.46 GiB
Duration : 1h 46mn
Overall bit rate : 1 962 Kbps
Writing application : VirtualDubMod 1.5.10.3 | www.virtualdub-fr.org || (build 2550/release)
Writing library : VirtualDubMod build 2550/release
Video
ID : 0
Format : MPEG-4 Visual
Format profile : Advanced Simple@L5
Format settings, BVOP : 1
Format settings, QPel : No
Format settings, GMC : No warppoints
Format settings, Matrix : Default (MPEG)
Codec ID : XVID
Codec ID/Hint : XviD
Duration : 1h 46mn
Bit rate : 1 760 Kbps
Width : 720 pixels
Height : 384 pixels
Display aspect ratio : 1.85:1
Frame rate : 25.000 fps
Color space : YUV
Chroma subsampling : 4:2:0
Bit depth : 8 bits
Scan type : Progressive
Compression mode : Lossy
Bits/(Pixel*Frame) : 0.255
Stream size : 1.31 GiB (90%)
Writing library : XviD 1.2.1 (UTC 2008-12-04)
Audio
ID : 1
Format : AC-3
Format/Info : Audio Coding 3
Mode extension : CM (complete main)
Format settings, Endianness : Big
Codec ID : 2000
Duration : 1h 46mn
Bit rate mode : Constant
Bit rate : 192 Kbps
Channel count : 2 channels
Channel positions : Front: L R
Sampling rate : 48.0 KHz
Bit depth : 16 bits
Compression mode : Lossy
Stream size : 146 MiB (10%)
Alignment : Split accross interleaves
Interleave, duration : 40 ms (1.00 video frame)
Interleave, preload duration : 500 ms

 
Не забывайте говорить Спасибо. Не уходите с раздачи!   
Торрент: Зарегистрирован [05 мар 2018, 14:06] Для скачивания .torrent
необходима регистрация
Или скачать с помощью
MediaGet
Статус:
Проверен
 
.torrent скачан: 0 раз
Хэш: dd8a035096f929537390029b8097e5d1b23754bf
Размер: 1.46 ГБ (1 567 739 904 байт)
Стать Автором раздачи
 
 
Раздал: 0 байт
Скачал: 0 байт
Ратио: Inf.
Сообщения: 487468
Зарегистрирован: 17 апр 2014, 13:57


  • Похожие торренты
    Ответы
    Просмотры
    Последнее сообщение

Вернуться в Отечественные фильмы 2011 - 2015 года

Ресурс не предоставляет электронные версии произведений, а занимается лишь коллекционированием и каталогизацией ссылок, присылаемых и публикуемых на форуме нашими читателями. Если вы являетесь правообладателем какого-либо представленного материала и не желаете чтобы ссылка на него находилась в нашем каталоге, свяжитесь с нами и мы незамедлительно удалим её. Файлы для обмена на трекере предоставлены пользователями сайта, и администрация не несёт ответственности за их содержание. Просьба не заливать файлы, защищенные авторскими правами, а также файлы нелегального содержания!
cron