Набережная Орфевр, Плата за страх, Дьяволицы / Quai des Orfèvres, Le salaire de la peur, Les diaboliques (Анри-Жорж Клузо / Henri-Georges Clouzot) [1947, 1952, 1954, DVD5+DVD9+DVD5]

 
 Статистика раздачи 
Размер: 15.57 ГБ   |  Зарегистрирован: 25 фев 2018, 18:32   |   .torrent скачан: 0 раз
Сидеров: 1  [ 0 байт/сек ]     Личеров: 0  [ 0 байт/сек ]  
  

Набережная Орфевр, Плата за страх, Дьяволицы / Quai des Orfèvres, Le salaire de la peur, Les diaboliques (Анри-Жорж Клузо / Henri-Georges Clouzot) [1947, 1952, 1954, DVD5+DVD9+DVD5]

Сообщение Nakazhu » 25 фев 2018, 18:32

Анри-Жорж Клузо - Коллекционное издание [DVD5+DVD9+DVD5]: Набережная Орфевр, Плата за страх, Дьяволицы


Набережная Орфевр / Quai des Orfèvres
Страна: Франция
Жанр: драма, криминал, музыка, фильм-нуар
Год выпуска: 1947
Продолжительность: 01:41:54
Перевод: Профессиональный (многоголосый, закадровый)
Субтитры: русские
Оригинальная аудиодорожка: французская
Режиссер: Анри-Жорж Клузо / Henri-Georges Clouzot
В ролях: Луи Жуве, Симона Ренан, Бернар Блие, Сьюзи Делер, Пьер Ларке, Жанна Фюзье-Жир, Клодин Дюпюи, Шарль Дюллен, Анри Ариюс, Шарль Блаветт
Описание: Жени Лямур выступает с фривольными песенками на сцене театра-варьете «Рай», её муж Морис аккомпанирует ей на рояле. Их подруга Дора Монье оказывает сомнительные услуги старому извращенцу Бриньону: время от времени она фотографирует для него обнаженных девиц.
Бриньон обещает Жени работу в кино, если и она согласится позировать для него. Узнав, что жена отправилась к старику, страшно ревнивый Морис бросается туда же, чтобы убить Бриньона… увы, он обнаруживает там лишь его труп. Считая, что это сделала жена, он срочно фабрикует себе не очень убедительное алиби.
Инспектор Антуан, грубоватый жесткий полицейский и одновременно заботливый и добрый отец-одиночка, подозревая Мориса, постепенно собирает против него улики…
Бонусы: Ролик к фильму "Плата за страх", Ролик к фильму "Дьяволицы", Фильмографии
Меню: есть, анимированное
Тип релиза: DVD5
Контейнер: DVD-Video
Видео: PAL 4:3 (720x576(0.474)) MPEG Video, 25,000 кадр/сек, 4914 Кбит/сек
Аудио: Russian (Dolby AC-3, 4 ch) 384 Кбит/сек, 48.0 КГц
Аудио 2: Russian (Dolby AC-3, 2 ch) 192 Кбит/сек, 48.0 КГц
Аудио 3: French (Dolby AC-3, 2 ch) 192 Кбит/сек, 48.0 КГц
Общее
Полное имя : Clouzot\1. Quai des Orfevres\VIDEO_TS\VTS_03_1.VOB
Формат : MPEG-PS
Размер файла : 1024 Мбайт
Продолжительность : 24 м. 41 с.
Режим общего битрейта : Переменный
Общий поток : 5797 Кбит/сек
Видео
Идентификатор : 224 (0xE0)
Формат : MPEG Video
Версия формата : Version 2
Профиль формата : Main@Main
Настройки формата : CustomMatrix / BVOP
Параметр BVOP формата : Да
Параметр матрицы формата : Выборочная
Параметр GOP формата : M=3, N=12
Структура изображения : Frame
Продолжительность : 24 м. 41 с.
Вид битрейта : Переменный
Битрейт : 4914 Кбит/сек
Максимальный битрейт : 9500 Кбит/сек
Ширина : 720 пикселей
Высота : 576 пикселей
Соотношение сторон : 4:3
Частота кадров : 25,000 кадров/сек
Стандарт вещания : PAL
Цветовое пространство : YUV
Субдискретизация насыщенности : 4:2:0
Битовая глубина : 8 бит
Тип развёртки : Чересстрочная
Порядок развёртки : Верхнее поле первое
Метод сжатия : С потерями
Бит/(Пиксели*Кадры) : 0.474
Временной код первого кадра : 00:00:00:00
Оригинал временного кода : Group of pictures header
GOP, открыто/закрыто : Открыто
Размер потока : 868 Мбайт (85%)
Аудио #1
Идентификатор : 189 (0xBD)-128 (0x80)
Формат : AC-3
Формат/Информация : Audio Coding 3
Режим смешивания : DVD-Video
Продолжительность : 24 м. 41 с.
Вид битрейта : Постоянный
Битрейт : 384 Кбит/сек
Каналы : 4 канала
Расположение каналов : Front: L C R, Back: C
Частота : 48,0 КГц
Частота кадров : 31,250 кадров/сек (1536 SPF)
Битовая глубина : 16 бит
Метод сжатия : С потерями
Размер потока : 67,8 Мбайт (7%)
ServiceKind/String : Complete Main
Аудио #2
Идентификатор : 189 (0xBD)-129 (0x81)
Формат : AC-3
Формат/Информация : Audio Coding 3
Режим смешивания : DVD-Video
Продолжительность : 24 м. 41 с.
Вид битрейта : Постоянный
Битрейт : 192 Кбит/сек
Каналы : 2 канала
Расположение каналов : Front: L R
Частота : 48,0 КГц
Частота кадров : 31,250 кадров/сек (1536 SPF)
Битовая глубина : 16 бит
Метод сжатия : С потерями
Размер потока : 33,9 Мбайт (3%)
ServiceKind/String : Complete Main
Аудио #3
Идентификатор : 189 (0xBD)-130 (0x82)
Формат : AC-3
Формат/Информация : Audio Coding 3
Режим смешивания : DVD-Video
Продолжительность : 24 м. 41 с.
Вид битрейта : Постоянный
Битрейт : 192 Кбит/сек
Каналы : 2 канала
Расположение каналов : Front: L R
Частота : 48,0 КГц
Частота кадров : 31,250 кадров/сек (1536 SPF)
Битовая глубина : 16 бит
Метод сжатия : С потерями
Размер потока : 33,9 Мбайт (3%)
ServiceKind/String : Complete Main
Текст
Идентификатор : 189 (0xBD)-32 (0x20)
Формат : RLE
Формат/Информация : Run-length encoding
Режим смешивания : DVD-Video
Продолжительность : 24 м. 36 с.
Задержка видео : 2 с. 240 мс.



Плата за страх / Le salaire de la peur
#77Страна: Франция, Италия
Жанр: триллер, драма, приключения
Год выпуска: 1952
Продолжительность: 02:21:39
Перевод: Профессиональный (многоголосый, закадровый)
Субтитры: русские, французские
Оригинальная аудиодорожка: французская
Режиссер: Анри-Жорж Клузо / Henri-Georges Clouzot
В ролях: Ив Монтан, Шарль Ванель, Фолько Люлли, Петер ван Эйк, Вера Клузо, Уильям Таббс, Дарио Морено, Йо Дест, Антонио Чента, Луиш ди Лима
Описание: Четверо храбрецов, застрявших без денег в крошечном городишке где-то в сердце Латинской Америки, берутся за самоубийственную работу. За плату в 2000 долларов нужно доставить 2 грузовика, груженных нитроглицерином, на нефтяные скважины, расположенные на расстоянии 300 миль от города.
Там нитроглицерин полезен — его используют при тушении пожаров, но в пути он смертельно опасен. Ведь это мощнейшая взрывчатка и малейший толчок, неосторожное движение руля или резкий удар по тормозам — и всё исчезнет в пламени…
А дорога — как в российской глубинке. Вероятность добраться до пункта назначения минимальна, но деньги нужны позарез, это пропуск на родину, а другой работы не предвидится…
Бонусы: Портрет режиссера, Рекламный ролик, Ролик к фильму "Дьяволицы", Фильмографии
Меню: есть, анимированное
Тип релиза: DVD9
Контейнер: DVD-Video
Видео: PAL 4:3 (720x576(0.626)) MPEG Video, 25,000 кадр/сек, 6492 Кбит/сек
Аудио: Russian (Dolby AC-3, 2 ch) 192 Кбит/сек, 48.0 КГц
Аудио 2: French (Dolby AC-3, 2 ch) 192 Кбит/сек, 48.0 КГц
Общее
Полное имя : Clouzot\2. Le salaire de la peur\VIDEO_TS\VTS_03_1.VOB
Формат : MPEG-PS
Размер файла : 1024 Мбайт
Продолжительность : 20 м. 24 с.
Режим общего битрейта : Переменный
Общий поток : 7015 Кбит/сек
Видео
Идентификатор : 224 (0xE0)
Формат : MPEG Video
Версия формата : Version 2
Профиль формата : Main@Main
Настройки формата : CustomMatrix / BVOP
Параметр BVOP формата : Да
Параметр матрицы формата : Выборочная
Параметр GOP формата : M=3, N=12
Структура изображения : Frame
Продолжительность : 20 м. 24 с.
Вид битрейта : Переменный
Битрейт : 6492 Кбит/сек
Максимальный битрейт : 8500 Кбит/сек
Ширина : 720 пикселей
Высота : 576 пикселей
Соотношение сторон : 4:3
Частота кадров : 25,000 кадров/сек
Стандарт вещания : PAL
Цветовое пространство : YUV
Субдискретизация насыщенности : 4:2:0
Битовая глубина : 8 бит
Тип развёртки : Чересстрочная
Порядок развёртки : Верхнее поле первое
Метод сжатия : С потерями
Бит/(Пиксели*Кадры) : 0.626
Временной код первого кадра : 00:00:00:00
Оригинал временного кода : Group of pictures header
GOP, открыто/закрыто : Открыто
Размер потока : 947 Мбайт (93%)
Аудио #1
Идентификатор : 189 (0xBD)-128 (0x80)
Формат : AC-3
Формат/Информация : Audio Coding 3
Режим смешивания : DVD-Video
Продолжительность : 20 м. 24 с.
Вид битрейта : Постоянный
Битрейт : 192 Кбит/сек
Каналы : 2 канала
Расположение каналов : Front: L R
Частота : 48,0 КГц
Частота кадров : 31,250 кадров/сек (1536 SPF)
Битовая глубина : 16 бит
Метод сжатия : С потерями
Размер потока : 28,0 Мбайт (3%)
ServiceKind/String : Complete Main
Аудио #2
Идентификатор : 189 (0xBD)-129 (0x81)
Формат : AC-3
Формат/Информация : Audio Coding 3
Режим смешивания : DVD-Video
Продолжительность : 20 м. 23 с.
Вид битрейта : Постоянный
Битрейт : 192 Кбит/сек
Каналы : 2 канала
Расположение каналов : Front: L R
Частота : 48,0 КГц
Частота кадров : 31,250 кадров/сек (1536 SPF)
Битовая глубина : 16 бит
Метод сжатия : С потерями
Размер потока : 28,0 Мбайт (3%)
ServiceKind/String : Complete Main
Текст
Идентификатор : 189 (0xBD)-32 (0x20)
Формат : RLE
Формат/Информация : Run-length encoding
Режим смешивания : DVD-Video



Дьяволицы / Les diaboliques
#77Страна: Франция
Жанр: ужасы, триллер, драма, криминал, детектив
Год выпуска: 1954
Продолжительность: 01:51:55
Перевод: Профессиональный (многоголосый, закадровый)
Перевод 2: Авторский (одноголосый, закадровый)
Субтитры: русские, французские
Оригинальная аудиодорожка: французская
Режиссер: Анри-Жорж Клузо / Henri-Georges Clouzot
В ролях: Симона Синьоре, Вера Клузо, Поль Мёрисс, Пьер Ларке, Мишель Серро, Жан Брошар, Шарль Ванель, Тереза Дорни, Жорж Шамара, Робер Дальбан
Описание: Директор частной школы Мишель Деласаль — плохой муж и очень плохой человек. Его не выносят коллеги, жена Кристина и даже его любовница Николь. Кристина, которой на самом деле принадлежит школа, хочет развода, но Мишель заявляет, что скорее убьёт несчастную женщину, чем допустит своё разорение.
Доведенные до предела, бывшие соперницы решаются на крайний шаг — утопить Мишеля во время уикенда. Останется только спрятать труп, заявить в полицию об исчезновении и забыть об этом кошмаре. Но вдруг тело исчезает, а Кристину начинают преследовать странные видения… Тем временем, отставной инспектор Фише начинает поиски исчезнувшего мужа директрисы.
Бонусы: Рекламный ролик, Ролик к фильму "Плата за страх", Фильмографии
Меню: есть, анимированное
Тип релиза: DVD5
Контейнер: DVD-Video
Видео: PAL 4:3 (720x576(0.441)) MPEG Video, 25,000 кадр/сек, 4570 Кбит/сек
Аудио: Russian (Dolby AC-3, 2 ch) 192 Кбит/сек, 48.0 КГц
Аудио 2: Russian (Dolby AC-3, 2 ch) 192 Кбит/сек, 48.0 КГц, Р. Янкелевич
Аудио 3: French (Dolby AC-3, 2 ch) 192 Кбит/сек, 48.0 КГц
Общее
Полное имя : Clouzot\3. Les diaboliques\VIDEO_TS\VTS_03_1.VOB
Формат : MPEG-PS
Размер файла : 1024 Мбайт
Продолжительность : 27 м. 15 с.
Режим общего битрейта : Переменный
Общий поток : 5250 Кбит/сек
Видео
Идентификатор : 224 (0xE0)
Формат : MPEG Video
Версия формата : Version 2
Профиль формата : Main@Main
Настройки формата : CustomMatrix / BVOP
Параметр BVOP формата : Да
Параметр матрицы формата : Выборочная
Параметр GOP формата : M=3, N=12
Структура изображения : Frame
Продолжительность : 27 м. 15 с.
Вид битрейта : Переменный
Битрейт : 4570 Кбит/сек
Максимальный битрейт : 8400 Кбит/сек
Ширина : 720 пикселей
Высота : 576 пикселей
Соотношение сторон : 4:3
Частота кадров : 25,000 кадров/сек
Стандарт вещания : PAL
Цветовое пространство : YUV
Субдискретизация насыщенности : 4:2:0
Битовая глубина : 8 бит
Тип развёртки : Чересстрочная
Порядок развёртки : Верхнее поле первое
Метод сжатия : С потерями
Бит/(Пиксели*Кадры) : 0.441
Временной код первого кадра : 00:00:00:00
Оригинал временного кода : Group of pictures header
GOP, открыто/закрыто : Открыто
Размер потока : 891 Мбайт (87%)
Аудио #1
Идентификатор : 189 (0xBD)-128 (0x80)
Формат : AC-3
Формат/Информация : Audio Coding 3
Режим смешивания : DVD-Video
Продолжительность : 27 м. 15 с.
Вид битрейта : Постоянный
Битрейт : 192 Кбит/сек
Каналы : 2 канала
Расположение каналов : Front: L R
Частота : 48,0 КГц
Частота кадров : 31,250 кадров/сек (1536 SPF)
Битовая глубина : 16 бит
Метод сжатия : С потерями
Размер потока : 37,4 Мбайт (4%)
ServiceKind/String : Complete Main
Аудио #2
Идентификатор : 189 (0xBD)-129 (0x81)
Формат : AC-3
Формат/Информация : Audio Coding 3
Режим смешивания : DVD-Video
Продолжительность : 27 м. 15 с.
Вид битрейта : Постоянный
Битрейт : 192 Кбит/сек
Каналы : 2 канала
Расположение каналов : Front: L R
Частота : 48,0 КГц
Частота кадров : 31,250 кадров/сек (1536 SPF)
Битовая глубина : 16 бит
Метод сжатия : С потерями
Размер потока : 37,4 Мбайт (4%)
ServiceKind/String : Complete Main
Аудио #3
Идентификатор : 189 (0xBD)-130 (0x82)
Формат : AC-3
Формат/Информация : Audio Coding 3
Режим смешивания : DVD-Video
Продолжительность : 27 м. 15 с.
Вид битрейта : Постоянный
Битрейт : 192 Кбит/сек
Каналы : 2 канала
Расположение каналов : Front: L R
Частота : 48,0 КГц
Частота кадров : 31,250 кадров/сек (1536 SPF)
Битовая глубина : 16 бит
Метод сжатия : С потерями
Размер потока : 37,4 Мбайт (4%)
ServiceKind/String : Complete Main
Текст #1
Идентификатор : 189 (0xBD)-33 (0x21)
Формат : RLE
Формат/Информация : Run-length encoding
Режим смешивания : DVD-Video
Продолжительность : 27 м. 5 с.
Задержка видео : 6 с. 480 мс.
Текст #2
Идентификатор : 189 (0xBD)-32 (0x20)
Формат : RLE
Формат/Информация : Run-length encoding
Режим смешивания : DVD-Video


 
Не забывайте говорить Спасибо. Не уходите с раздачи!   
Торрент: Зарегистрирован [25 фев 2018, 18:32] Скачать торрент
Скачать торрент
[ Размер 46.11 КБ / Просмотров 9 ]
Статус:
Проверен
 
.torrent скачан: 0 раз
Хэш: fbea1d08d416e5ec7071640943db9e73ef64430a
Размер: 15.57 ГБ (16 719 948 779 байт)
Стать Автором раздачи
 
 
Раздал: 0 байт
Скачал: 0 байт
Ратио: Inf.
Сообщения: 487468
Зарегистрирован: 17 апр 2014, 13:57


Вернуться в Классика зарубежного кино (DVD Video)

Ресурс не предоставляет электронные версии произведений, а занимается лишь коллекционированием и каталогизацией ссылок, присылаемых и публикуемых на форуме нашими читателями. Если вы являетесь правообладателем какого-либо представленного материала и не желаете чтобы ссылка на него находилась в нашем каталоге, свяжитесь с нами и мы незамедлительно удалим её. Файлы для обмена на трекере предоставлены пользователями сайта, и администрация не несёт ответственности за их содержание. Просьба не заливать файлы, защищенные авторскими правами, а также файлы нелегального содержания!
cron