Хищник / Predator (Джон Мактирнан / John McTiernan) [1987, США, боевик, BDRip] AVO (Андрей Гаврилов - ранний / VHS) + AVO (Василий Горчаков) + AVO (Максим Латышев) + AVO Вартан Дохалов) + AVO (Юрий Живов) + DUB + Original Eng + Sub (Rus, Eng)

 
 Статистика раздачи 
Размер: 3.22 ГБ   |  Зарегистрирован: 21 фев 2018, 15:51   |   .torrent скачан: 0 раз
Сидеров: 1  [ 0 байт/сек ]     Личеров: 0  [ 0 байт/сек ]  
  

Хищник / Predator (Джон Мактирнан / John McTiernan) [1987, США, боевик, BDRip] AVO (Андрей Гаврилов - ранний / VHS) + AVO (Василий Горчаков) + AVO (Максим Латышев) + AVO Вартан Дохалов) + AVO (Юрий Живов) + DUB + Original Eng + Sub (Rus, Eng)

Сообщение Nakazhu » 21 фев 2018, 15:51

Хищник / Predator
Страна: США
Жанр: фантастика, боевик, триллер
Год выпуска: 1987
Продолжительность: 01:46:35
Перевод: Авторский (одноголосый закадровый) Андрей Гаврилов (ранний)
Перевод 2: Авторский (одноголосый закадровый) Василий Горчаков
Перевод 3: Авторский (одноголосый закадровый) Максим Латышев
Субтитры: Русские / Русские (Гоблин) / Ангийские
Оригинальная аудиодорожка: Английский
Режиссер: Джон Мактирнан / John McTiernan
В ролях: Арнольд Шварценеггер, Карл Уэзерс, Элпидия Каррильо, Билл Дьюк, Джесси Вентура, Сонни Лэндэм, Ричард Чавес, Шейн Блэк, Кевин Питер Холл
Описание: Американский вертолёт был сбит партизанами в Южной Америке. Оставшийся в живых экипаж находится в плену. Центральное разведывательное управление США бросает свои лучшие силы для освобождения американских граждан. Элитная группа спецназа во главе с Датчем была заброшена в южноамериканские джунгли. Операция шла по плану до тех пор, пока они не наткнулись на поляну с растерзанными телами, опознать которые не представлялось возможным. Только по обрывкам униформы стало понятно, и есть экипаж сбитого вертолета. Понимая, что операция провалена, Датч отдает приказ двигаться к точке эвакуации. По дороге становится ясно, что что-то невидимое, сливающееся с лесом, охотится на них. Охотится, методично убивая одного за другим, забирая себе страшный трофей - череп с позвоночником. В живых остается один Датч, готовый сразиться с инопланетным охотником...
Сэмпл: http://multi-up.com/1188022
Качество видео: BDRip (Исходник Blu-Ray Disc 1080p / BD50)
Формат видео: AVI
Видео: XviD 73, 720x384, (1,85:1), 23,976 fps, 1872 Кбит/с, 8 бит, 0.28 bit/pixel
Аудио: Русский (АС3, 6 ch (Front: L C R, Side: L R, LFE), 48,0 KHz, 448 Kbps) Андрей Гаврилов (ранний)
Аудио 2: Русский (АС3, 2 ch (Front: L R), 48,0 KHz, 224 Kbps) Василий Горчаков
Аудио 3: Русский (АС3, 2 ch (Front: L R), 48,0 KHz, 224 Kbps) Максим Латышев
Аудио 4: Русский (АС3, 2 ch (Front: L R), 48,0 KHz, 224 Kbps) Андрей Гаврилов - VHS (отдельно)
Аудио 5: Русский (АС3, 2 ch (Front: L R), 48,0 KHz, 192 Kbps) Вартан Дохалов (отдельно)
Аудио 6: Русский (АС3, 2 ch (Front: L R), 48,0 KHz, 224 Kbps) Юрий Живов (отдельно)
Аудио 7: Русский (АС3, 6 ch (Front: L C R, Side: L R, LFE), 48,0 KHz, 448 Kbps) Дублированный (отдельно)
Аудио 8: Английский (АС3, 6 ch (Front: L C R, Side: L R, LFE), 48,0 KHz, 448 Kbps) Английский (отдельно)
Код: Выделить всё
Общее
Полное имя                               : H:\Фильмы на трекер\Хищник_(боевик, триллер)_Leonard_Lew\Хищник_(боевик, триллер)_Leonard_Lew.avi
Формат                                   : AVI
Формат/Информация                        : Audio Video Interleave
Профиль формата                          : OpenDML
Размер файла                             : 2,08 Гбайт
Продолжительность                        : 1 ч. 46 м.
Общий поток                              : 2792 Кбит/сек
Программа кодирования                    : VirtualDubMod 1.5.10.2 (build 2540/release)
Библиотека кодирования                   : VirtualDubMod build 2540/release
Видео
Идентификатор                            : 0
Формат                                   : MPEG-4 Visual
Профиль формата                          : Advanced Simple@L5
Параметр BVOP формата                    : 2
Параметр QPel формата                    : Нет
Параметр GMC формата                     : Без точки перехода
Параметр матрицы формата                 : Выборочная
Идентификатор кодека                     : XVID
Идентификатор кодека/Подсказка           : XviD
Продолжительность                        : 1 ч. 46 м.
Битрейт                                  : 1872 Кбит/сек
Ширина                                   : 720 пикселей
Высота                                   : 384 пикселя
Соотношение сторон                       : 1,85:1
Частота кадров                           : 23,976 (23976/1000) кадра/сек
Цветовое пространство                    : YUV
Субдискретизация насыщенности            : 4:2:0
Битовая глубина                          : 8 бит
Тип развёртки                            : Прогрессивная
Метод сжатия                             : С потерями
Бит/(Пиксели*Кадры)                      : 0.282
Размер потока                            : 1,39 Гбайт (67%)
Библиотека кодирования                   : XviD 73
Аудио #1
Идентификатор                            : 1
Формат                                   : AC-3
Формат/Информация                        : Audio Coding 3
Расширение режима                        : CM (complete main)
Параметр Endianness формата              : Big
Идентификатор кодека                     : 2000
Продолжительность                        : 1 ч. 46 м.
Вид битрейта                             : Постоянный
Битрейт                                  : 448 Кбит/сек
Каналы                                   : 6 каналов
Расположение каналов                     : Front: L C R, Side: L R, LFE
Частота                                  : 48,0 КГц
Частота кадров                           : 31,250 кадров/сек (1536 spf)
Метод сжатия                             : С потерями
Размер потока                            : 342 Мбайт (16%)
Выравнивание                             : Разделение по промежуткам
Продолжительность промежутка             : 42  мс. (1,00 видеокадр)
Время предзагрузки промежутка            : 500  мс.
Аудио #2
Идентификатор                            : 2
Формат                                   : AC-3
Формат/Информация                        : Audio Coding 3
Расширение режима                        : CM (complete main)
Параметр Endianness формата              : Big
Идентификатор кодека                     : 2000
Продолжительность                        : 1 ч. 46 м.
Вид битрейта                             : Постоянный
Битрейт                                  : 224 Кбит/сек
Каналы                                   : 2 канала
Расположение каналов                     : Front: L R
Частота                                  : 48,0 КГц
Частота кадров                           : 31,250 кадров/сек (1536 spf)
Метод сжатия                             : С потерями
Размер потока                            : 171 Мбайт (8%)
Выравнивание                             : Разделение по промежуткам
Продолжительность промежутка             : 42  мс. (1,00 видеокадр)
Время предзагрузки промежутка            : 500  мс.
Аудио #3
Идентификатор                            : 3
Формат                                   : AC-3
Формат/Информация                        : Audio Coding 3
Расширение режима                        : CM (complete main)
Параметр Endianness формата              : Big
Идентификатор кодека                     : 2000
Продолжительность                        : 1 ч. 46 м.
Вид битрейта                             : Постоянный
Битрейт                                  : 224 Кбит/сек
Каналы                                   : 2 канала
Расположение каналов                     : Front: L R
Частота                                  : 48,0 КГц
Частота кадров                           : 31,250 кадров/сек (1536 spf)
Метод сжатия                             : С потерями
Размер потока                            : 171 Мбайт (8%)
Выравнивание                             : Разделение по промежуткам
Продолжительность промежутка             : 42  мс. (1,00 видеокадр)
Время предзагрузки промежутка            : 500  мс.
 
Не забывайте говорить Спасибо. Не уходите с раздачи!   
Торрент: Зарегистрирован [21 фев 2018, 15:51] Для скачивания .torrent
необходима регистрация
Или скачать с помощью
MediaGet
Статус:
Проверен
 
.torrent скачан: 0 раз
Хэш: 5788944d24d1ccea4bbb8217df6b3e54b8bf4feb
Размер: 3.22 ГБ (3 459 830 293 байт)
Стать Автором раздачи
 
 
Раздал: 0 байт
Скачал: 0 байт
Ратио: Inf.
Сообщения: 487468
Зарегистрирован: 17 апр 2014, 13:57


  • Похожие торренты
    Ответы
    Просмотры
    Последнее сообщение

Вернуться в Зарубежное кино

Ресурс не предоставляет электронные версии произведений, а занимается лишь коллекционированием и каталогизацией ссылок, присылаемых и публикуемых на форуме нашими читателями. Если вы являетесь правообладателем какого-либо представленного материала и не желаете чтобы ссылка на него находилась в нашем каталоге, свяжитесь с нами и мы незамедлительно удалим её. Файлы для обмена на трекере предоставлены пользователями сайта, и администрация не несёт ответственности за их содержание. Просьба не заливать файлы, защищенные авторскими правами, а также файлы нелегального содержания!
cron