Календарь (телеканал ОТР) [2018, познавательный, DVB] 9 выпусков

 
 Статистика раздачи 
Размер: 7.12 ГБ   |  Зарегистрирован: 13 фев 2018, 18:25   |   .torrent скачан: 0 раз
Сидеров: 1  [ 0 байт/сек ]     Личеров: 0  [ 0 байт/сек ]  
  

Календарь (телеканал ОТР) [2018, познавательный, DVB] 9 выпусков

Сообщение Nakazhu » 13 фев 2018, 18:25

Календарь
Дата/Год выпуска: 2018
Страна: Россия
Жанр: познавательный
Продолжительность: 9x40 минут
Перевод: Не требуется
Русские субтитры: нет
Оригинальная аудиодорожка: русский
Ведущие: Мария Карпова и Максим Митченков, Алена Варначева, Мария Василевская и Юрий Алексеев
Телеканал: ОТРОписание: Какие интересные события происходят именно сегодня, и чем ознаменовался этот день в прошлом? Об этом вы узнаете из позитивной и полезной передачи "Календарь" на ОТР. Исторические факты, консультации профессионалов в самых разных областях, интервью с гостями, музыкальные новинки, театральные и кинопремьеры – все это в утренней программе "Календарь" на ОТР.
Мы рассказываем о событиях, которые часто остаются в тени экономических и политических новостей, делимся полезными советами, рассказываем о персонах, оставивших свой след в истории, и людях, влияющих на происходящее сегодня.
Не успели записать рецепт, прослушали совет экспертов или желаете заново увидеть понравившийся сюжет? Заходите на наш сайт и смотрите передачу онлайн в любое удобное время! Кроме того, вы можете поделиться интересным выпуском с друзьями в соцсетях или оставить свое мнение в комментариях.Сэмпл: https://www.sendspace.com/file/04246v
качество: DVB
формат: TS/M2TS
Видео: MPEG4 Video (H264) 720x576 (20:11) 2 464kbps 25fps
Аудио: MP2 192kbps 48kHz 2ch
1. 1 февраля 2018 года.
2. 2 февраля 2018 года.
3. 5 февраля 2018 года.
4. 6 февраля 2018 года.
5. 7 февраля 2018 года.
6. 8 февраля 2018 года.
7. 9 февраля 2018 года.
8. 12 февраля 2018 года.
9. 13 февраля 2018 года.
Код: Выделить всё
General
ID                             : 1 (0x1)
Complete name                  : F:\Мои раздачи\Телепрограммы\Календарь (2018)\Календарь. Февраль 2018\Календарь (2018-02-01).ts
Format                         : MPEG-TS
File size                      : 803 MiB
Duration                       : 40 min 9 s
Overall bit rate mode          : Variable
Overall bit rate               : 2 796 kb/s
Video
ID                             : 69 (0x45)
Menu ID                        : 1 (0x1)
Format                         : AVC
Format/Info                    : Advanced Video Codec
Format profile                 : Main@L3
Format settings, CABAC         : Yes
Format settings, ReFrames      : 3 frames
Format settings, GOP           : M=4, N=28
Codec ID                       : 27
Duration                       : 40 min 9 s
Bit rate                       : 2 464 kb/s
Width                          : 720 pixels
Height                         : 576 pixels
Display aspect ratio           : 16:9
Frame rate                     : 25.000 FPS
Standard                       : Component
Color space                    : YUV
Chroma subsampling             : 4:2:0
Bit depth                      : 8 bits
Scan type                      : Interlaced
Scan type, store method        : Separated fields
Scan order                     : Top Field First
Bits/(Pixel*Frame)             : 0.238
Stream size                    : 708 MiB (88%)
Color range                    : Limited
Color primaries                : BT.601 PAL
Transfer characteristics       : BT.470 System B, BT.470 System G
Matrix coefficients            : BT.601
Audio
ID                             : 68 (0x44)
Menu ID                        : 1 (0x1)
Format                         : MPEG Audio
Format version                 : Version 1
Format profile                 : Layer 2
Codec ID                       : 3
Duration                       : 40 min 8 s
Bit rate mode                  : Constant
Bit rate                       : 192 kb/s
Channel(s)                     : 2 channels
Sampling rate                  : 48.0 kHz
Compression mode               : Lossy
Stream size                    : 55.1 MiB (7%)
Language                       : English
 
Не забывайте говорить Спасибо. Не уходите с раздачи!   
Торрент: Зарегистрирован [13 фев 2018, 18:25] Для скачивания .torrent
необходима регистрация
Или скачать с помощью
MediaGet
Статус:
Проверен
 
.torrent скачан: 0 раз
Хэш: dba152da7053b5932fc260121f2b43e9eb9be758
Размер: 7.12 ГБ (7 642 602 508 байт)
Стать Автором раздачи
 
 
Раздал: 0 байт
Скачал: 0 байт
Ратио: Inf.
Сообщения: 402933
Зарегистрирован: 17 апр 2014, 13:57


  • Похожие торренты
    Ответы
    Просмотры
    Последнее сообщение

Вернуться в Информационно-аналитические и общественно-политические передачи

Ресурс не предоставляет электронные версии произведений, а занимается лишь коллекционированием и каталогизацией ссылок, присылаемых и публикуемых на форуме нашими читателями. Если вы являетесь правообладателем какого-либо представленного материала и не желаете чтобы ссылка на него находилась в нашем каталоге, свяжитесь с нами и мы незамедлительно удалим её. Файлы для обмена на трекере предоставлены пользователями сайта, и администрация не несёт ответственности за их содержание. Просьба не заливать файлы, защищенные авторскими правами, а также файлы нелегального содержания!
cron