Библиотекари / The Librarians / Сезон: 4 / Серии: 1-12 из 12 (Джонатан Фрейкс) [2017, США, фантастика, приключения, WEB-DL 1080p] MVO (LostFilm)

 
 Статистика раздачи 
Размер: 28.95 ГБ   |  Зарегистрирован: 13 фев 2018, 18:24   |   .torrent скачан: 0 раз
Сидеров: 1  [ 0 байт/сек ]     Личеров: 0  [ 0 байт/сек ]  
  

Библиотекари / The Librarians / Сезон: 4 / Серии: 1-12 из 12 (Джонатан Фрейкс) [2017, США, фантастика, приключения, WEB-DL 1080p] MVO (LostFilm)

Сообщение Nakazhu » 13 фев 2018, 18:24

Библиотекари / The Librarians

Год выпуска: 2017
Страна: США
Жанр: фантастика, приключения
Продолжительность: ~00:45:00
Перевод: Профессиональный (многоголосый закадровый) LostFilm
Режиссёр: Джонатан Фрейкс
В ролях: Ребекка Ромин, Кристиан Кейн, Джон Ким, Линди Бут, Джон Ларрокетт, Ноа Уайли, Лесли-Энн Брандт, Боб Ньюхарт, Джейн Куртин, Мэтт Фрюэр, Триша Хелфер, Тайлер Мэйн, Шон МакГрат, Хейли Уэбб, Джеймс Суит
Описание: Если зайти в здание нью-йоркской публичной библиотеки, повернуть направо, шагнуть в магический портал и спуститься в лифте на самый нижний этаж, то попадешь в Библиотеку - хранилище древних знаний и опасных магических артефактов. Там работают Библиотекарь и его помощники, которые спасают мир каждый день (по пятницам - дважды). Новый приключенческий сериал от канала TNT, основанный на персонажах всемирно известной серии фильмов Дэвида Титчера.

Качество: WEB-DL 1080p
Контейнер: MKV
Видео: AVC, 1920х1080, 16:9, 23.976 FPS, ~ 7800 kbps
Аудио: AC3, 48 KHz, 6 ch, 640 kbps - RUS
Аудио 2: E-AC3, 48 KHz, 6 ch, 640 kbps - ENG
Субтитры: Английские
Реклама: Отсутствует
Видео: Оригинальные WEB-DL 1080p Amazon
Аудио: Дорожка АС-3 5.1 получена путём наложения выделенных чистых голосов на центральный канал.
Релиз : Zgurvas
General
Unique ID : 234076626424287845335257453784561457902 (0xB01984B69824A4DE9BF4A9C27FD99AEE)
Complete name : M:\Сериалы на раздачу\The.Librarians.S04.1080p.WEB-DL.Rus.Eng.LostFilm\The.Librarians.S04E01.And.the.Dark.Secret.1080p.WEB-DL.Rus.Eng.LostFilm.mkv
Format : Matroska
Format version : Version 4 / Version 2
File size : 2.68 GiB
Duration : 42 min 16 s
Overall bit rate mode : Variable
Overall bit rate : 9 092 kb/s
Movie name : И тёмный секрет
Encoded date : UTC 2017-12-19 13:46:34
Writing application : mkvmerge v18.0.0 ('Apricity') 32-bit
Writing library : libebml v1.3.5 + libmatroska v1.4.8
Video
ID : 1
Format : AVC
Format/Info : Advanced Video Codec
Format profile : High@L4
Format settings : CABAC / 4 Ref Frames
Format settings, CABAC : Yes
Format settings, ReFrames : 4 frames
Codec ID : V_MPEG4/ISO/AVC
Duration : 42 min 16 s
Bit rate mode : Variable
Bit rate : 7 809 kb/s
Maximum bit rate : 15.0 Mb/s
Width : 1 920 pixels
Height : 1 080 pixels
Display aspect ratio : 16:9
Frame rate mode : Constant
Frame rate : 23.976 (24000/1001) FPS
Color space : YUV
Chroma subsampling : 4:2:0
Bit depth : 8 bits
Scan type : Progressive
Bits/(Pixel*Frame) : 0.157
Stream size : 2.31 GiB (86%)
Language : English
Default : Yes
Forced : No
Color range : Limited
Color primaries : BT.709
Transfer characteristics : BT.709
Matrix coefficients : BT.709
Audio #1
ID : 2
Format : AC-3
Format/Info : Audio Coding 3
Codec ID : A_AC3
Duration : 42 min 16 s
Bit rate mode : Constant
Bit rate : 640 kb/s
Channel(s) : 6 channels
Channel positions : Front: L C R, Side: L R, LFE
Sampling rate : 48.0 kHz
Frame rate : 31.250 FPS (1536 SPF)
Bit depth : 16 bits
Compression mode : Lossy
Stream size : 193 MiB (7%)
Title : AC3 5.1 @ 640 kbps - MVO, LostFilm
Language : Russian
Service kind : Complete Main
Default : Yes
Forced : No
Audio #2
ID : 3
Format : E-AC-3
Format/Info : Enhanced Audio Coding 3
Codec ID : A_EAC3
Duration : 42 min 16 s
Bit rate mode : Constant
Bit rate : 640 kb/s
Channel(s) : 6 channels
Channel positions : Front: L C R, Side: L R, LFE
Sampling rate : 48.0 kHz
Frame rate : 187.500 FPS (256 SPF)
Compression mode : Lossy
Stream size : 193 MiB (7%)
Title : E-AC3 5.1 @ 640 kbps - Original
Language : English
Service kind : Complete Main
Default : No
Forced : No
Text
ID : 4
Format : UTF-8
Codec ID : S_TEXT/UTF8
Codec ID/Info : UTF-8 Plain Text
Duration : 41 min 36 s
Bit rate : 86 b/s
Count of elements : 752
Stream size : 26.4 KiB (0%)
Language : English
Default : No
Forced : No
Когда раздача ведётся путём добавления новых серий, при каждом добавлении создётся новый торрент. Чтобы начать докачку новой серии, пользователям необходимо сделать следующее:
(1) остановить скачивание,
(2) удалить старый торрент у себя из клиента (старые серии удалять не надо),
(3) скачать новый торрент и запустить его у себя в клиенте вместо старого, при этом указать клиенту путь в старую папку, куда и должно происходить скачивание новых серий.
Ваш клиент при этом должен произвести хеширование (проверку) старой папки (если не производит сам - помогите ему сделать это), и будет докачивать только те серии, которых у вас ещё нет. Старые серии при этом не удаляются, а продолжают раздаваться!
Eсли вы уже удалили старые серии, то предотвратить повторную закачку старых серий можно, отжав галочку в соответсвующих местах при запуске нового торрента. По возможности, желательно не удалять старые серии как можно дольше, чтобы релизёр не столько продолжал раздавать старые серии, а смог сконцентрироваться на новых.
Предыдущие и альтернативные раздачи
 
Не забывайте говорить Спасибо. Не уходите с раздачи!   
Торрент: Зарегистрирован [13 фев 2018, 18:24] Скачать торрент
Скачать торрент
[ Размер 74.37 КБ / Просмотров 2 ]
Статус:
Проверен
 
.torrent скачан: 0 раз
Хэш: 1531368269e72ac2fb0f19e937d2a8fa53732561
Размер: 28.95 ГБ (31 089 229 783 байт)
Стать Автором раздачи
 
 
Раздал: 0 байт
Скачал: 0 байт
Ратио: Inf.
Сообщения: 487468
Зарегистрирован: 17 апр 2014, 13:57


  • Похожие торренты
    Ответы
    Просмотры
    Последнее сообщение

Вернуться в Зарубежные сериалы (HD Video)

Ресурс не предоставляет электронные версии произведений, а занимается лишь коллекционированием и каталогизацией ссылок, присылаемых и публикуемых на форуме нашими читателями. Если вы являетесь правообладателем какого-либо представленного материала и не желаете чтобы ссылка на него находилась в нашем каталоге, свяжитесь с нами и мы незамедлительно удалим её. Файлы для обмена на трекере предоставлены пользователями сайта, и администрация не несёт ответственности за их содержание. Просьба не заливать файлы, защищенные авторскими правами, а также файлы нелегального содержания!
cron