Хильда / GILDA, no me arrepiento de este amor (Лорена Муньос/Lorena Muñoz) [2016, Аргентина, драма, TVRip -> DVD] VO (Мадлен Дюваль)

 
 Статистика раздачи 
Размер: 1.76 ГБ   |  Зарегистрирован: 13 фев 2018, 18:08   |   .torrent скачан: 0 раз
Сидеров: 1  [ 0 байт/сек ]     Личеров: 0  [ 0 байт/сек ]  
  

Хильда / GILDA, no me arrepiento de este amor (Лорена Муньос/Lorena Muñoz) [2016, Аргентина, драма, TVRip -> DVD] VO (Мадлен Дюваль)

Сообщение Nakazhu » 13 фев 2018, 18:08

Хильда / GILDA, no me arrepiento de este amor
Страна: Аргентина
Жанр: драма
Год выпуска: 2016
Продолжительность: 01:57:53
Перевод: Одноголосый закадровый Мадлен Дюваль
Субтитры: нет
Режиссер: Лорена Муньос/Lorena Muñoz
В ролях: Natalia Oreiro /Наталия Орейро, Ángela Torres /Анхела Торрес, Javier Drolas /Хавиер Дролас, Lautaro Delgado Лаутаро Дельгадо, Susana Pampín /Сюзанна Пампин, Roly Serrano /Рори Серрано, Daniel Melingo /Даниель Мелинго, Daniel Valenzuela /Даниель Валенсуэла, Vanesa Weinberg /Ванеса Уайнберг, Jordán Otero /Хордан Отеро, Edwin Manrique /Эдвин Манрике.
Описание: Популярная аргентинская певица 1990-х годов Хильда (Шильда) трагически погибла на пике своей карьеры в возрасте 36 лет. Настоящее имя Хильды — Мириам Алехандра Бианчи. За последние шесть лет своей жизни она сделала больше, чем многие музыканты успевают за всю свою карьеру, но далось ей это намного тяжелее, чем многие думают. Это фильм о трудной борьбе женщины за осуществление своей мечты.
Доп. информация: В сравнение с темой http://rutracker.org/forum/viewtopic.php?t=5518353 нет букв на экране
Сэмпл: http://multi-up.com/1187036
Качество видео: TVRip -> DVD
Формат видео: MP4
Видео: AVC, 1280х720(16:9) 29,970 fps, 1980 kbps, 0.072 bit/pixel
Аудио: 44.1 kHz, AAC, 2 ch, 192 kbps
Код: Выделить всё
General
Complete name                            : D:\torrents\GILDA 2016 (Natalia Oreiro).mp4
Format                                   : MPEG-4
Format profile                           : Base Media
Codec ID                                 : isom
File size                                : 1.76 GiB
Duration                                 : 1h 57mn
Overall bit rate                         : 2 138 Kbps
Writing application                      : Lavf57.83.100
Video
ID                                       : 1
Format                                   : AVC
Format/Info                              : Advanced Video Codec
Format profile                           : High@L3.1
Format settings, CABAC                   : Yes
Format settings, ReFrames                : 4 frames
Codec ID                                 : avc1
Codec ID/Info                            : Advanced Video Coding
Duration                                 : 1h 57mn
Bit rate                                 : 1 980 Kbps
Width                                    : 1 280 pixels
Height                                   : 720 pixels
Display aspect ratio                     : 16:9
Frame rate mode                          : Constant
Frame rate                               : 29.970 fps
Color space                              : YUV
Chroma subsampling                       : 4:2:0
Bit depth                                : 8 bits
Scan type                                : Progressive
Bits/(Pixel*Frame)                       : 0.072
Stream size                              : 1.59 GiB (91%)
Writing library                          : x264 core 148
Encoding settings                        : cabac=1 / ref=2 / deblock=1:0:0 / analyse=0x3:0x113 / me=hex / subme=6 / psy=1 / psy_rd=1.00:0.00 / mixed_ref=1 / me_range=16 / chroma_me=1 / trellis=1 / 8x8dct=1 / cqm=0 / deadzone=21,11 / fast_pskip=1 / chroma_qp_offset=-2 / threads=6 / lookahead_threads=1 / sliced_threads=0 / nr=0 / decimate=1 / interlaced=0 / bluray_compat=0 / constrained_intra=0 / bframes=3 / b_pyramid=2 / b_adapt=1 / b_bias=0 / direct=1 / weightb=1 / open_gop=0 / weightp=1 / keyint=250 / keyint_min=25 / scenecut=40 / intra_refresh=0 / rc_lookahead=30 / rc=2pass / mbtree=1 / bitrate=1980 / ratetol=1.0 / qcomp=0.60 / qpmin=0 / qpmax=69 / qpstep=4 / cplxblur=20.0 / qblur=0.5 / vbv_maxrate=1980 / vbv_bufsize=3960 / nal_hrd=none / filler=0 / ip_ratio=1.40 / aq=1:1.00
Audio
ID                                       : 2
Format                                   : AAC
Format/Info                              : Advanced Audio Codec
Format profile                           : LC
Codec ID                                 : 40
Duration                                 : 1h 57mn
Bit rate mode                            : Constant
Bit rate                                 : 192 Kbps
Channel count                            : 2 channels
Channel positions                        : Front: L R
Sampling rate                            : 44.1 KHz
Compression mode                         : Lossy
Stream size                              : 162 MiB (9%)
 
Не забывайте говорить Спасибо. Не уходите с раздачи!   
Торрент: Зарегистрирован [13 фев 2018, 18:08] Для скачивания .torrent
необходима регистрация
Или скачать с помощью
MediaGet
Статус:
Проверен
 
.torrent скачан: 0 раз
Хэш: de7cac6b2ad64cf4e318be62940c698ed943519c
Размер: 1.76 ГБ (1 890 338 727 байт)
Стать Автором раздачи
 
 
Раздал: 0 байт
Скачал: 0 байт
Ратио: Inf.
Сообщения: 487468
Зарегистрирован: 17 апр 2014, 13:57


  • Похожие торренты
    Ответы
    Просмотры
    Последнее сообщение

Вернуться в Зарубежные фильмы 2016-2017 года

Ресурс не предоставляет электронные версии произведений, а занимается лишь коллекционированием и каталогизацией ссылок, присылаемых и публикуемых на форуме нашими читателями. Если вы являетесь правообладателем какого-либо представленного материала и не желаете чтобы ссылка на него находилась в нашем каталоге, свяжитесь с нами и мы незамедлительно удалим её. Файлы для обмена на трекере предоставлены пользователями сайта, и администрация не несёт ответственности за их содержание. Просьба не заливать файлы, защищенные авторскими правами, а также файлы нелегального содержания!
cron