Тупик / Dead End (Жан-Баптист Андреа / Jean-Baptiste Andrea, Фабрис Канепа / Fabrice Canepa) [2003, США, Франция, ужасы, мистика, дорожный триллер, черная комедия, WEBRip 720p] DVO (Екатеринбург Арт) + 2xVO + Sub Rus, Eng + Original Eng

 
 Статистика раздачи 
Размер: 2.95 ГБ   |  Зарегистрирован: 13 фев 2018, 16:04   |   .torrent скачан: 0 раз
Сидеров: 1  [ 0 байт/сек ]     Личеров: 0  [ 0 байт/сек ]  
  

Тупик / Dead End (Жан-Баптист Андреа / Jean-Baptiste Andrea, Фабрис Канепа / Fabrice Canepa) [2003, США, Франция, ужасы, мистика, дорожный триллер, черная комедия, WEBRip 720p] DVO (Екатеринбург Арт) + 2xVO + Sub Rus, Eng + Original Eng

Сообщение Nakazhu » 13 фев 2018, 16:04

Тупик / Dead End
Страна: США, Франция
Жанр: ужасы, мистика, дорожный триллер, черная комедия
Год выпуска: 2003
Продолжительность: 01:23:19


Перевод 1: Профессиональный (двухголосый закадровый) Екатеринбург Арт
Перевод 2: Одноголосый закадровый
Перевод 3: Одноголосый закадровый allecs2010
Субтитры: русские и английские
Оригинальная аудиодорожка: английский


Режиссер: Жан-Баптист Андреа / Jean-Baptiste Andrea, Фабрис Канепа / Fabrice Canepa
В ролях: Рэй Уайз, Лин Шэй, Мик Кэйн, Александра Холден, Билли Эшер, Эмбер Смит, Карен С. Греган, Шарон Мэдден, Стив Валентайн, Джимми Ф. Скэггз


Описание: Все последние 20 лет Фрэнк отвозил семью на Рождество к своей теще и всегда ездил одной и той же дорогой. На это раз он решил сократить путь, проехав через лес. И совершенно напрасно… По лесу бродит таинственная женщина в белом, сеющая смерть. Ужасный черный автомобиль с невидимым шофером увозит жертвы в ночную тьму. На каждом дорожном знаке указан пункт назначения, которого невозможно достичь. Те же, кому посчастливится выжить, уже никогда и ничего не смогут рассказать о том, что произошло с ними в эту Рождественскую ночь…


Доп. информация:


Сэмпл: http://sendfile.su/1398688


Тип релиза: WEBRip 720p
Контейнер: MKV
Видео: MPEG-4 AVC, 1280x720p (16:9), 29.970 fps, 3028 kbps
Аудио 1: русский / AC3 / 5.1 / 48 kHz / 384 kbps / 16 bits || DVO
Аудио 2: русский / AC3 / 5.1 / 48 kHz / 384 kbps / 16 bits || VO
Аудио 3: русский / AC3 / 5.1 / 48 kHz / 640 kbps / 16 bits || VO
Аудио 4: английский / AC3 / 5.1 / 48 kHz / 640 kbps / 16 bits || ENG
Формат субтитров: softsub (SRT)
General
Unique ID : 223181677043996552331276140139790876466 (0xA7E73A3C81B910219BA8E92E8FC23F32)
Complete name : C:\Users\ALEX\Desktop\HD - Ярлык\Dead End.2003.WEBRip.720p.3xRus.Eng.Subs.mkv
Format : Matroska
Format version : Version 4 / Version 2
File size : 2.95 GiB
Duration : 1 h 23 min
Overall bit rate mode : Variable
Overall bit rate : 5 076 kb/s
Movie name : Dead End.2003.WEBRip 720p
Encoded date : UTC 2018-02-13 12:31:44
Writing application : mkvmerge v8.5.2 ('Crosses') 64bit
Writing library : libebml v1.3.3 + libmatroska v1.4.4
Video
ID : 1
Format : AVC
Format/Info : Advanced Video Codec
Format profile : High@L3.2
Format settings : CABAC / 4 Ref Frames
Format settings, CABAC : Yes
Format settings, RefFrames : 4 frames
Codec ID : V_MPEG4/ISO/AVC
Duration : 1 h 23 min
Bit rate mode : Variable
Bit rate : 3 028 kb/s
Maximum bit rate : 6 000 kb/s
Width : 1 280 pixels
Height : 720 pixels
Display aspect ratio : 16:9
Frame rate mode : Constant
Frame rate : 29.970 (30000/1001) FPS
Standard : NTSC
Color space : YUV
Chroma subsampling : 4:2:0
Bit depth : 8 bits
Scan type : Progressive
Bits/(Pixel*Frame) : 0.110
Stream size : 1.76 GiB (60%)
Title : Dead End.2003.WEBRip 720p
Language : English
Default : Yes
Forced : No
Color range : Limited
Color primaries : BT.709
Transfer characteristics : BT.709
Matrix coefficients : BT.709
Audio #1
ID : 2
Format : AC-3
Format/Info : Audio Coding 3
Format settings, Endianness : Big
Codec ID : A_AC3
Duration : 1 h 23 min
Bit rate mode : Constant
Bit rate : 384 kb/s
Channel(s) : 6 channels
Channel positions : Front: L C R, Side: L R, LFE
Sampling rate : 48.0 kHz
Frame rate : 31.250 FPS (1536 SPF)
Bit depth : 16 bits
Compression mode : Lossy
Stream size : 229 MiB (8%)
Title : DVO (Екатеринбург Арт)
Language : Russian
Service kind : Complete Main
Default : Yes
Forced : No
Audio #2
ID : 3
Format : AC-3
Format/Info : Audio Coding 3
Format settings, Endianness : Big
Codec ID : A_AC3
Duration : 1 h 22 min
Bit rate mode : Constant
Bit rate : 384 kb/s
Channel(s) : 6 channels
Channel positions : Front: L C R, Side: L R, LFE
Sampling rate : 48.0 kHz
Frame rate : 31.250 FPS (1536 SPF)
Bit depth : 16 bits
Compression mode : Lossy
Stream size : 227 MiB (8%)
Title : VO
Language : Russian
Service kind : Complete Main
Default : No
Forced : No
Audio #3
ID : 4
Format : AC-3
Format/Info : Audio Coding 3
Format settings, Endianness : Big
Codec ID : A_AC3
Duration : 1 h 23 min
Bit rate mode : Constant
Bit rate : 640 kb/s
Channel(s) : 6 channels
Channel positions : Front: L C R, Side: L R, LFE
Sampling rate : 48.0 kHz
Frame rate : 31.250 FPS (1536 SPF)
Bit depth : 16 bits
Compression mode : Lossy
Stream size : 381 MiB (13%)
Title : VO (allecs2010)
Language : Russian
Service kind : Complete Main
Default : No
Forced : No
Audio #4
ID : 5
Format : AC-3
Format/Info : Audio Coding 3
Format settings, Endianness : Big
Codec ID : A_AC3
Duration : 1 h 23 min
Bit rate mode : Constant
Bit rate : 640 kb/s
Channel(s) : 6 channels
Channel positions : Front: L C R, Side: L R, LFE
Sampling rate : 48.0 kHz
Frame rate : 31.250 FPS (1536 SPF)
Bit depth : 16 bits
Compression mode : Lossy
Stream size : 381 MiB (13%)
Title : Original
Language : English
Service kind : Complete Main
Default : No
Forced : No
Text #1
ID : 6
Format : UTF-8
Codec ID : S_TEXT/UTF8
Codec ID/Info : UTF-8 Plain Text
Duration : 1 h 20 min
Bit rate : 77 b/s
Count of elements : 1216
Stream size : 45.7 KiB (0%)
Title : Full
Language : Russian
Default : No
Forced : No
Text #2
ID : 7
Format : UTF-8
Codec ID : S_TEXT/UTF8
Codec ID/Info : UTF-8 Plain Text
Duration : 1 h 19 min
Bit rate : 51 b/s
Count of elements : 799
Stream size : 29.9 KiB (0%)
Title : Full
Language : English
Default : No
Forced : No
 
Не забывайте говорить Спасибо. Не уходите с раздачи!   
Торрент: Зарегистрирован [13 фев 2018, 16:04] Скачать торрент
Скачать торрент
[ Размер 15.35 КБ / Просмотров 1 ]
Статус:
Проверен
 
.torrent скачан: 0 раз
Хэш: d5eef8fe7d29442b69ff77a717f4785a4b2a78e0
Размер: 2.95 ГБ (3 172 188 249 байт)
Стать Автором раздачи
 
 
Раздал: 0 байт
Скачал: 0 байт
Ратио: Inf.
Сообщения: 487468
Зарегистрирован: 17 апр 2014, 13:57


  • Похожие торренты
    Ответы
    Просмотры
    Последнее сообщение

Вернуться в HD Video на модерации

Ресурс не предоставляет электронные версии произведений, а занимается лишь коллекционированием и каталогизацией ссылок, присылаемых и публикуемых на форуме нашими читателями. Если вы являетесь правообладателем какого-либо представленного материала и не желаете чтобы ссылка на него находилась в нашем каталоге, свяжитесь с нами и мы незамедлительно удалим её. Файлы для обмена на трекере предоставлены пользователями сайта, и администрация не несёт ответственности за их содержание. Просьба не заливать файлы, защищенные авторскими правами, а также файлы нелегального содержания!
cron