Лесная баллада (Нурмухан Жантурин, Гук Ин Цой) [1972, драма, DVB-AVC]

 
 Статистика раздачи 
Размер: 1.17 ГБ   |  Зарегистрирован: 13 фев 2018, 15:01   |   .torrent скачан: 0 раз
Сидеров: 1  [ 0 байт/сек ]     Личеров: 0  [ 0 байт/сек ]  
  

Лесная баллада (Нурмухан Жантурин, Гук Ин Цой) [1972, драма, DVB-AVC]

Сообщение Nakazhu » 13 фев 2018, 15:01

Лесная баллада
Жанр: драма
Студия: Казахфильм
Продолжительность: 01:14:27
Год выпуска: 1972
Режиссёры: Нурмухан Жантурин, Гук Ин Цой
В ролях: Валентина Теличкина, Любовь Германова, Ольга Остроумова, Николай Гринько, Людмила Иванова, Раиса Мухамедьярова, Гульнара Рахимбаева, Тамара Косубаева, Виктор Евграфов, Борис Клюев...
Описание: В первые дни войны у десятилетней девочки Айгуль, дочери советского офицера, погибает мать. Больную, измученную девочку прячут от фашистов старый мельник и его внук Федя. На глазах у детей немцы убивают деда, подозревая его в связях с партизанами. Дети остаются одни…

Семпл: http://sendfile.su/1398670
Качество: DVB-AVC [Ел Арна] (эфир 13.02.2018)
Формат: MKV
Видео: AVC, 720x576 (16:9) @ 1047x576, 25 fps, ~2015 kbps, 0.194 bit/pixel
Аудио: [RUS] MP2, 48 kHz, 2 ch, 192 kbps
Общее
Уникальный идентификатор : 20600362587516986516546662628058366276 (0xF7F7C4ADBD4C66C53A7058B63368144)
Полное имя : F:\Лесная баллада (1972).mkv
Формат : Matroska
Версия формата : Version 2
Размер файла : 1,17 Гбайт
Продолжительность : 1 ч. 14 м.
Общий поток : 2251 Кбит/сек
Программа кодирования : Lavf54.63.104
Библиотека кодирования : Lavf54.63.104
Видео
Идентификатор : 1
Формат : AVC
Формат/Информация : Advanced Video Codec
Профиль формата : High@L3
Параметр CABAC формата : Да
Параметр RefFrames формата : 3 кадра
Идентификатор кодека : V_MPEG4/ISO/AVC
Продолжительность : 1 ч. 14 м.
Битрейт : 2015 Кбит/сек
Ширина : 720 пикселей
Высота : 576 пикселей
Соотношение сторон : 16:9
Соотношение сторон в оригинале : 16:9
Режим частоты кадров : Постоянный
Частота кадров : 25,000 кадров/сек
Стандарт вещания : Component
Цветовое пространство : YUV
Субдискретизация насыщенности : 4:2:0
Битовая глубина : 8 бит
Тип развёртки : Чересстрочная
Метод сохранения типа развёртки : Раздельные поля
Порядок развёртки : Верхнее поле первое
Бит/(Пиксели*Кадры) : 0.194
Размер потока : 1,05 Гбайт (89%)
Default : Нет
Forced : Нет
Цветовой диапазон : Limited
Основные цвета : BT.601 PAL
Характеристики трансфера : BT.470 System B, BT.470 System G
Коэффициенты матрицы : BT.470 System B, BT.470 System G
Аудио
Идентификатор : 2
Формат : MPEG Audio
Версия формата : Version 1
Профиль формата : Layer 2
Идентификатор кодека : A_MPEG/L2
Идентификатор кодека/Подсказка : MP2
Продолжительность : 1 ч. 14 м.
Вид битрейта : Постоянный
Битрейт : 192 Кбит/сек
Каналы : 2 канала
Частота : 48,0 КГц
Метод сжатия : С потерями
Размер потока : 102 Мбайт (9%)
Язык : English
Default : Да
Forced : Нет
 
Не забывайте говорить Спасибо. Не уходите с раздачи!   
Торрент: Зарегистрирован [13 фев 2018, 15:01] Для скачивания .torrent
необходима регистрация
Или скачать с помощью
MediaGet
Статус:
Проверен
 
.torrent скачан: 0 раз
Хэш: f6c122213cd681d10a02907adb1949fadc172b2f
Размер: 1.17 ГБ (1 257 054 058 байт)
Стать Автором раздачи
 
 
Раздал: 0 байт
Скачал: 0 байт
Ратио: Inf.
Сообщения: 402933
Зарегистрирован: 17 апр 2014, 13:57


  • Похожие торренты
    Ответы
    Просмотры
    Последнее сообщение

Вернуться в Кино СССР, Советской России, Российской республики (1917-1991)

Ресурс не предоставляет электронные версии произведений, а занимается лишь коллекционированием и каталогизацией ссылок, присылаемых и публикуемых на форуме нашими читателями. Если вы являетесь правообладателем какого-либо представленного материала и не желаете чтобы ссылка на него находилась в нашем каталоге, свяжитесь с нами и мы незамедлительно удалим её. Файлы для обмена на трекере предоставлены пользователями сайта, и администрация не несёт ответственности за их содержание. Просьба не заливать файлы, защищенные авторскими правами, а также файлы нелегального содержания!
cron