Отречение. 500 дней. Покаяние (Виктор Правдюк) [2004, Православно-исторический, DVDRip]

 
 Статистика раздачи 
Размер: 814.94 МБ   |  Зарегистрирован: 12 фев 2018, 22:27   |   .torrent скачан: 0 раз
Сидеров: 1  [ 0 байт/сек ]     Личеров: 0  [ 0 байт/сек ]  
  

Отречение. 500 дней. Покаяние (Виктор Правдюк) [2004, Православно-исторический, DVDRip]

Сообщение Nakazhu » 12 фев 2018, 22:27

Отречение. 500 дней. Покаяние
Год выпуска: 2004
Страна: Россия
Жанр: Православно-исторический
Продолжительность: 00:12:55 + 00:18:00 + 00:12:46 (3 ~ 00:14:00)
Перевод: Не требуется
Русские субтитры: нет
Оригинальная аудиодорожка: русский
Режиссер: В. Правдюк
Описание: Фильм повествует о последнем годе жизни Русского Императора Николая II, ключевой фигуры священной русской истории. Комментирует историк Валерий Островский.
Список выпусков/серий:
1. Отречение
2. 500 дней
3. Покаяние
Доп. информация: Рипы сделаны с этого исходника - http://rutracker.org/forum/viewtopic.php?t=5519569.
Сэмпл: https://yadi.sk/i/J7OQCgi13SLB8d
Качество: DVDRip
Формат: AVI
Видео: 2393 Кбит/сек, 688*528 (4:3), 25,000 кадров/сек, XviD
Аудио: Русский, 224 Кбит/сек, 48,0 КГц, 2 канала, MPEG Audio
Код: Выделить всё
Общее
Полное имя                               : O:\MONAR\Документальные фильмы\История России и мира\Отречение. 500 дней. Покаяние DVDRip\1. Отречение.avi
Формат                                   : AVI
Формат/Информация                        : Audio Video Interleave
Размер файла                             : 243 Мбайт
Продолжительность                        : 12 м. 55 с.
Общий поток                              : 2627 Кбит/сек
Видео
Идентификатор                            : 0
Формат                                   : MPEG-4 Visual
Профиль формата                          : Advanced Simple@L5
Настройки формата                        : BVOP2 / Custom Matrix
Параметр BVOP формата                    : 2
Параметр QPel формата                    : Нет
Параметр GMC формата                     : Без точки перехода
Параметр матрицы формата                 : Выборочная
Идентификатор кодека                     : XVID
Идентификатор кодека/Подсказка           : XviD
Продолжительность                        : 12 м. 55 с.
Битрейт                                  : 2393 Кбит/сек
Ширина                                   : 688 пикселей
Высота                                   : 528 пикселей
Соотношение сторон                       : 4:3
Частота кадров                           : 25,000 кадров/сек
Цветовое пространство                    : YUV
Субдискретизация насыщенности            : 4:2:0
Битовая глубина                          : 8 бит
Тип развёртки                            : Прогрессивная
Метод сжатия                             : С потерями
Бит/(Пиксели*Кадры)                      : 0.264
Размер потока                            : 221 Мбайт (91%)
Библиотека кодирования                   : XviD 1.2.1 (UTC 2008-12-04)
Аудио
Идентификатор                            : 1
Формат                                   : MPEG Audio
Версия формата                           : Version 1
Профиль формата                          : Layer 2
Идентификатор кодека                     : 50
Продолжительность                        : 12 м. 55 с.
Продолжительность оригинала              : 12 м. 54 с.
Вид битрейта                             : Постоянный
Битрейт                                  : 224 Кбит/сек
Каналы                                   : 2 канала
Частота                                  : 48,0 КГц
Метод сжатия                             : С потерями
Размер потока                            : 20,7 Мбайт (9%)
Выравнивание                             : Соединение по промежуткам
Продолжительность промежутка             : 40  мс. (1,00 видеокадр)
Видео: 2388 Кбит/сек, 688*528 (4:3), 25,000 кадров/сек, XviD
Аудио: Русский, 224 Кбит/сек, 48,0 КГц, 2 канала, MPEG Audio
Код: Выделить всё
Общее
Полное имя                               : O:\MONAR\Документальные фильмы\История России и мира\Отречение. 500 дней. Покаяние DVDRip\2. 500 дней.avi
Формат                                   : AVI
Формат/Информация                        : Audio Video Interleave
Размер файла                             : 337 Мбайт
Продолжительность                        : 18 м. 0 с.
Общий поток                              : 2621 Кбит/сек
Видео
Идентификатор                            : 0
Формат                                   : MPEG-4 Visual
Профиль формата                          : Advanced Simple@L5
Настройки формата                        : BVOP2 / Custom Matrix
Параметр BVOP формата                    : 2
Параметр QPel формата                    : Нет
Параметр GMC формата                     : Без точки перехода
Параметр матрицы формата                 : Выборочная
Идентификатор кодека                     : XVID
Идентификатор кодека/Подсказка           : XviD
Продолжительность                        : 18 м. 0 с.
Битрейт                                  : 2388 Кбит/сек
Ширина                                   : 688 пикселей
Высота                                   : 528 пикселей
Соотношение сторон                       : 4:3
Частота кадров                           : 25,000 кадров/сек
Цветовое пространство                    : YUV
Субдискретизация насыщенности            : 4:2:0
Битовая глубина                          : 8 бит
Тип развёртки                            : Прогрессивная
Метод сжатия                             : С потерями
Бит/(Пиксели*Кадры)                      : 0.263
Размер потока                            : 307 Мбайт (91%)
Библиотека кодирования                   : XviD 1.2.1 (UTC 2008-12-04)
Аудио
Идентификатор                            : 1
Формат                                   : MPEG Audio
Версия формата                           : Version 1
Профиль формата                          : Layer 2
Идентификатор кодека                     : 50
Продолжительность                        : 17 м. 59 с.
Продолжительность оригинала              : 17 м. 59 с.
Вид битрейта                             : Постоянный
Битрейт                                  : 224 Кбит/сек
Каналы                                   : 2 канала
Частота                                  : 48,0 КГц
Метод сжатия                             : С потерями
Размер потока                            : 28,8 Мбайт (9%)
Выравнивание                             : Соединение по промежуткам
Продолжительность промежутка             : 40  мс. (1,00 видеокадр)
Видео: 2335 Кбит/сек, 688*528 (4:3), 25,000 кадров/сек, XviD
Аудио: Русский, 224 Кбит/сек, 48,0 КГц, 2 канала, MPEG Audio
Код: Выделить всё
Общее
Полное имя                               : O:\MONAR\Документальные фильмы\История России и мира\Отречение. 500 дней. Покаяние DVDRip\3. Покаяние.avi
Формат                                   : AVI
Формат/Информация                        : Audio Video Interleave
Размер файла                             : 235 Мбайт
Продолжительность                        : 12 м. 46 с.
Общий поток                              : 2568 Кбит/сек
Видео
Идентификатор                            : 0
Формат                                   : MPEG-4 Visual
Профиль формата                          : Advanced Simple@L5
Настройки формата                        : BVOP2 / Custom Matrix
Параметр BVOP формата                    : 2
Параметр QPel формата                    : Нет
Параметр GMC формата                     : Без точки перехода
Параметр матрицы формата                 : Выборочная
Идентификатор кодека                     : XVID
Идентификатор кодека/Подсказка           : XviD
Продолжительность                        : 12 м. 46 с.
Битрейт                                  : 2335 Кбит/сек
Ширина                                   : 688 пикселей
Высота                                   : 528 пикселей
Соотношение сторон                       : 4:3
Частота кадров                           : 25,000 кадров/сек
Цветовое пространство                    : YUV
Субдискретизация насыщенности            : 4:2:0
Битовая глубина                          : 8 бит
Тип развёртки                            : Прогрессивная
Метод сжатия                             : С потерями
Бит/(Пиксели*Кадры)                      : 0.257
Размер потока                            : 213 Мбайт (91%)
Библиотека кодирования                   : XviD 1.2.1 (UTC 2008-12-04)
Аудио
Идентификатор                            : 1
Формат                                   : MPEG Audio
Версия формата                           : Version 1
Профиль формата                          : Layer 2
Идентификатор кодека                     : 50
Продолжительность                        : 12 м. 46 с.
Продолжительность оригинала              : 12 м. 45 с.
Вид битрейта                             : Постоянный
Битрейт                                  : 224 Кбит/сек
Каналы                                   : 2 канала
Частота                                  : 48,0 КГц
Метод сжатия                             : С потерями
Размер потока                            : 20,5 Мбайт (9%)
Выравнивание                             : Соединение по промежуткам
Продолжительность промежутка             : 40  мс. (1,00 видеокадр)
 
Не забывайте говорить Спасибо. Не уходите с раздачи!   
Торрент: Зарегистрирован [12 фев 2018, 22:27] Скачать торрент
Скачать торрент
[ Размер 16.64 КБ / Просмотров 9 ]
Статус:
Проверен
 
.torrent скачан: 0 раз
Хэш: a8902ffab65c6cb9714dccf6151a7e134e1cf462
Размер: 814.94 МБ (854 522 442 байт)
Стать Автором раздачи
 
 
Раздал: 0 байт
Скачал: 0 байт
Ратио: Inf.
Сообщения: 487468
Зарегистрирован: 17 апр 2014, 13:57


  • Похожие торренты
    Ответы
    Просмотры
    Последнее сообщение

Вернуться в Вера и религия (видео)

Ресурс не предоставляет электронные версии произведений, а занимается лишь коллекционированием и каталогизацией ссылок, присылаемых и публикуемых на форуме нашими читателями. Если вы являетесь правообладателем какого-либо представленного материала и не желаете чтобы ссылка на него находилась в нашем каталоге, свяжитесь с нами и мы незамедлительно удалим её. Файлы для обмена на трекере предоставлены пользователями сайта, и администрация не несёт ответственности за их содержание. Просьба не заливать файлы, защищенные авторскими правами, а также файлы нелегального содержания!
cron