Несчастный случай / Accident Man (Джесси Джонсон / Jesse Johnson) [2018, Великобритания, Боевик, триллер, криминал, BDRip] MVO (BD EUR)

 
 Статистика раздачи 
Размер: 1.47 ГБ   |  Зарегистрирован: 08 фев 2018, 23:08   |   .torrent скачан: 0 раз
Сидеров: 1  [ 0 байт/сек ]     Личеров: 0  [ 0 байт/сек ]  
  

Несчастный случай / Accident Man (Джесси Джонсон / Jesse Johnson) [2018, Великобритания, Боевик, триллер, криминал, BDRip] MVO (BD EUR)

Сообщение Nakazhu » 08 фев 2018, 23:08

Несчастный случай / Accident Man

Год выпуска: 2018
Выпущено: Великобритания / Six Demon Films
Жанр: боевик, триллер, криминал
Продолжительность: 01:45:29
Перевод: Профессиональный (многоголосый закадровый) BD EUR |Лицензия|
Субтитры: нет
Режиссер:
Джесси Джонсон / Jesse Johnson
В ролях:
Скотт Эдкинс, Рэй Стивенсон, Эшли Грин, Дэвид Пэймер, Майкл Джей Уайт, Рэй Парк, Эми Джонстон, Перри Бенсон, Ник Моран, Росс О'Хеннесси
Описание:
Майк Фэллон известен тем, что превращает все свои убийства в несчастный случай. Но его отношение к делу полностью меняется, когда умирает его бывшая девушка.
Релиз групп | | IMDB | КиноПоиск | Сэмпл |
Качество: BDRip [ACCIDENT_MAN_2018_EUR]
Формат: AVI
Видео: 720x304 (2.37:1), 23.976 fps, XviD build 67 ~1536 kbps avg, 0.29 bit/pixel
Аудио: 48 kHz, AC3 Dolby Digital, 3/2 (L,C,R,l,r) + LFE ch, ~448.00 kbps avg

Код:
Код: Выделить всё
Общее
Полное имя                               : D:\Neschastnyi_sluchai_2018_BDRip_by_Dalemake.avi
Формат                                   : AVI
Формат/Информация                        : Audio Video Interleave
Размер файла                             : 1,46 Гбайт
Продолжительность                        : 1 ч. 45 м.
Общий поток                              : 1978 Кбит/сек
Программа кодирования                    : VirtualDubMod 1.5.10.3 | www.virtualdub-fr.org || (build 2550/release)
Библиотека кодирования                   : VirtualDubMod build 2550/release
Видео
Идентификатор                            : 0
Формат                                   : MPEG-4 Visual
Профиль формата                          : Advanced Simple@L5
Параметр BVOP формата                    : 1
Параметр QPel формата                    : Нет
Параметр GMC формата                     : Без точки перехода
Параметр матрицы формата                 : Выборочная
Идентификатор кодека                     : XVID
Идентификатор кодека/Подсказка           : XviD
Продолжительность                        : 1 ч. 45 м.
Битрейт                                  : 1537 Кбит/сек
Ширина                                   : 720 пикселей
Высота                                   : 304 пикселя
Соотношение сторон                       : 2,35:1
Частота кадров                           : 23,976 кадра/сек
Цветовое пространство                    : YUV
Субдискретизация насыщенности            : 4:2:0
Битовая глубина                          : 8 бит
Тип развёртки                            : Прогрессивная
Метод сжатия                             : С потерями
Бит/(Пиксели*Кадры)                      : 0.293
Размер потока                            : 1,13 Гбайт (78%)
Библиотека кодирования                   : XviD 67
Аудио
Идентификатор                            : 1
Формат                                   : AC-3
Формат/Информация                        : Audio Coding 3
Расширение режима                        : CM (complete main)
Параметр Endianness формата              : Big
Идентификатор кодека                     : 2000
Продолжительность                        : 1 ч. 41 м.
Вид битрейта                             : Постоянный
Битрейт                                  : 448 Кбит/сек
Каналы                                   : 6 каналов
Расположение каналов                     : Front: L C R, Side: L R, LFE
Частота                                  : 48,0 КГц
Битовая глубина                          : 16 бит
Метод сжатия                             : С потерями
Размер потока                            : 326 Мбайт (22%)
Выравнивание                             : Разделение по промежуткам
Продолжительность промежутка             : 43  мс. (1,04 видеокадр)
Время предзагрузки промежутка            : 500  мс.


 
Не забывайте говорить Спасибо. Не уходите с раздачи!   
Торрент: Зарегистрирован [08 фев 2018, 23:08] Для скачивания .torrent
необходима регистрация
Или скачать с помощью
MediaGet
Статус:
Проверен
 
.torrent скачан: 0 раз
Хэш: aa180761bb7bf31d1e5afb9775cb537845dcb8ea
Размер: 1.47 ГБ (1 577 902 080 байт)
Стать Автором раздачи
 
 
Раздал: 0 байт
Скачал: 0 байт
Ратио: Inf.
Сообщения: 486736
Зарегистрирован: 17 апр 2014, 13:57


  • Похожие торренты
    Ответы
    Просмотры
    Последнее сообщение

Вернуться в Зарубежное кино

Ресурс не предоставляет электронные версии произведений, а занимается лишь коллекционированием и каталогизацией ссылок, присылаемых и публикуемых на форуме нашими читателями. Если вы являетесь правообладателем какого-либо представленного материала и не желаете чтобы ссылка на него находилась в нашем каталоге, свяжитесь с нами и мы незамедлительно удалим её. Файлы для обмена на трекере предоставлены пользователями сайта, и администрация не несёт ответственности за их содержание. Просьба не заливать файлы, защищенные авторскими правами, а также файлы нелегального содержания!
cron