Война асов (2 серии из 2) / The Aces' War 1914-1918 / La Guerre des As (Фабрис Урлье / Fabrice Hourlier) [2017, Документальный, авиация, война, биография, HDTVRip]

 
 Статистика раздачи 
Размер: 1.49 ГБ   |  Зарегистрирован: 05 фев 2018, 09:54   |   .torrent скачан: 0 раз
Сидеров: 1  [ 0 байт/сек ]     Личеров: 0  [ 0 байт/сек ]  
  

Война асов (2 серии из 2) / The Aces' War 1914-1918 / La Guerre des As (Фабрис Урлье / Fabrice Hourlier) [2017, Документальный, авиация, война, биография, HDTVRip]

Сообщение Nakazhu » 05 фев 2018, 09:54

Война асов (2 серии из 2) / The Aces' War 1914-1918 / La Guerre des As
Дата/Год выпуска: 2017
Страна: Франция, ARTE France
Жанр: Документальный, авиация, война, биография
Продолжительность: 2 х ~ 00:51:00
Перевод: Профессиональный (дублированный)
Режиссер: Фабрис Урлье / Fabrice Hourlier
Телеканал: Viasat History HD
Описание: Посмотрите сверху на Великую войну, вместе с самыми известными авиационными асами: Ма́нфредом фон Рихтго́феном, Эрнстом Удетом, Жоржем Гинеме́ром, Рене́ Поль Фонком, Эдвардом Мэнноком и Уильямом Бишопом. Основываясь на их воспоминаниях и впечатляющих 3D-реконструкциях боевых действий, этот документальный фильм расскажет о воздушных боях, жизни и подвигах этих людей, которые принесли им мировую известность в истории авиации с 1914 по 1918 год. Уникальная возможность попасть в частный мир этих людей из разных стран и самых разных слоев общества, которых объединяло общее желание использовать свое летное мастерство для служения своей стране.
Доп. информация: Авторство релиза - alf62
Большое СПАСИБО ПЕЧАЛЬ, за предоставленный постер!

качество: HDTVRip
формат: AVI
Видео: 720x368 (1.96:1), 25 fps, XviD build 73 ~1899 kbps avg, 0.29 bit/pixel
Аудио: 48 kHz, AC3 Dolby Digital, 2/0 (L,R) ch, ~192.00 kbps avg
1-я серия: 1914-1916 гг
2-я серия: 1917-1918 гг
Код: Выделить всё
Общее
Полное имя                               : E:\Запись\Aces\Война.асов.(1914-1918).2017.XviD.HDTVRip.alf62\Война.асов.(1.серия.из.2).1914-1916.XviD.HDTVRip.alf62.avi
Формат                                   : AVI
Формат/Информация                        : Audio Video Interleave
Размер файла                             : 764 Мбайт
Продолжительность                        : 50 м.
Общий поток                              : 2102 Кбит/сек
Программа кодирования                    : VirtualDubMod 1.5.10.3 | www.virtualdub-fr.org || (build 2550/release)
Библиотека кодирования                   : VirtualDubMod build 2550/release
Видео
Идентификатор                            : 0
Формат                                   : MPEG-4 Visual
Профиль формата                          : Advanced Simple@L5
Параметр BVOP формата                    : 2
Параметр QPel формата                    : Нет
Параметр GMC формата                     : Без точки перехода
Параметр матрицы формата                 : Default (MPEG)
Идентификатор кодека                     : XVID
Идентификатор кодека/Подсказка           : XviD
Продолжительность                        : 50 м.
Битрейт                                  : 1900 Кбит/сек
Ширина                                   : 720 пикселей
Высота                                   : 368 пикселей
Соотношение сторон                       : 1,957
Частота кадров                           : 25,000 кадров/сек
Цветовое пространство                    : YUV
Субдискретизация насыщенности            : 4:2:0
Битовая глубина                          : 8 бит
Тип развёртки                            : Прогрессивная
Метод сжатия                             : С потерями
Бит/(Пиксели*Кадры)                      : 0.287
Размер потока                            : 691 Мбайт (90%)
Библиотека кодирования                   : XviD 73
Аудио
Идентификатор                            : 1
Формат                                   : AC-3
Формат/Информация                        : Audio Coding 3
Расширение режима                        : CM (complete main)
Параметр Endianness формата              : Big
Идентификатор кодека                     : 2000
Продолжительность                        : 50 м.
Вид битрейта                             : Постоянный
Битрейт                                  : 192 Кбит/сек
Каналы                                   : 2 канала
Расположение каналов                     : Front: L R
Частота                                  : 48,0 КГц
Битовая глубина                          : 16 бит
Метод сжатия                             : С потерями
Размер потока                            : 69,8 Мбайт (9%)
Выравнивание                             : Разделение по промежуткам
Продолжительность промежутка             : 40  мс. (1,00 видеокадр)
Время предзагрузки промежутка            : 500  мс.


 
Не забывайте говорить Спасибо. Не уходите с раздачи!   
Торрент: Зарегистрирован [05 фев 2018, 09:54] Для скачивания .torrent
необходима регистрация
Или скачать с помощью
MediaGet
Статус:
Проверен
 
.torrent скачан: 0 раз
Хэш: dcaf9f584baba28d05463c6abfeb62b61a302e8f
Размер: 1.49 ГБ (1 596 246 016 байт)
Стать Автором раздачи
 
 
Раздал: 0 байт
Скачал: 0 байт
Ратио: Inf.
Сообщения: 486559
Зарегистрирован: 17 апр 2014, 13:57


  • Похожие торренты
    Ответы
    Просмотры
    Последнее сообщение

Вернуться в Авиация (видео)

Ресурс не предоставляет электронные версии произведений, а занимается лишь коллекционированием и каталогизацией ссылок, присылаемых и публикуемых на форуме нашими читателями. Если вы являетесь правообладателем какого-либо представленного материала и не желаете чтобы ссылка на него находилась в нашем каталоге, свяжитесь с нами и мы незамедлительно удалим её. Файлы для обмена на трекере предоставлены пользователями сайта, и администрация не несёт ответственности за их содержание. Просьба не заливать файлы, защищенные авторскими правами, а также файлы нелегального содержания!
cron