Энтони Бурден (Бурдэн): Неизведанные края / Anthony Bourdain: Parts Unknown (5 сезон: 8 серий из 9) (Tom Vitale) [2015, документальный, путешествия, кулинария, IPTVRip]

 
 Статистика раздачи 
Размер: 3.36 ГБ   |  Зарегистрирован: 31 янв 2018, 12:07   |   .torrent скачан: 0 раз
Сидеров: 1  [ 0 байт/сек ]     Личеров: 0  [ 0 байт/сек ]  
  

Энтони Бурден (Бурдэн): Неизведанные края / Anthony Bourdain: Parts Unknown (5 сезон: 8 серий из 9) (Tom Vitale) [2015, документальный, путешествия, кулинария, IPTVRip]

Сообщение Nakazhu » 31 янв 2018, 12:07

Энтони Бурден: Неизведанные края / Anthony Bourdain: Parts Unknown

5 сезон: 8 серий из 9
Год выпуска: 2015
Страна: США
Жанр: документальный, путешествия, кулинария
Продолжительность: ~00:40:00 x8
Перевод: Профессиональный (многоголосый закадровый) Первый ТВЧ
Русские субтитры: нет
Оригинальная аудиодорожка: нет
Режиссер: Tom Vitale
Телеканал: CNN / Телепутешествия
Описание: Каждый человек иногда задумывается, как сложилась бы его жизнь, живи он в другой стране. Известный американский шеф-повар Энтони Бурден ищет ответ на этот вопрос, путешествуя по всему миру. Погрузиться в чужую языковую среду, попробовать блюда местной кухни, погулять по затерянным улочкам городов и пообщаться с их обитателями - всё это стало его настоящей страстью.
Семпл: https://yadi.sk/i/xhy2BgiN3RhXeL
Качество: IPTVRip
Формат: MP4
Видео: AVC, 960x540 (16:9), ~1375 kbps, 25 fps
Аудио: AAC, ~94 kbps, 44.1 kHz, 2 ch
S05.E01 (36) - Prime Cuts: Season Four
S05.E02 (37) - Korea
S05.E03 (38) - Miami
S05.E04 (39) - Scotland
S05.E05 (40) - Madagascar
S05.E06 (41) - New Jersey
S05.E07 (42) - Budapest
S05.E08 (43) - Hawaii
S05.E09 (44) - Beirut
Код: Выделить всё
Общее
Формат                                   : MPEG-4
Профиль формата                          : Base Media
Идентификатор кодека                     : isom (isom/avc1)
Размер файла                             : 429 Мбайт
Продолжительность                        : 40 м. 51 с.
Режим общего битрейта                    : Переменный
Общий поток                              : 1469 Кбит/сек
Дата кодирования                         : UTC 2017-11-02 19:37:25
Дата пометки                             : UTC 2017-11-02 19:37:25
Видео
Идентификатор                            : 1
Формат                                   : AVC
Формат/Информация                        : Advanced Video Codec
Профиль формата                          : Main@L3.1
Настройки формата                        : CABAC / 2 Ref Frames
Параметр CABAC формата                   : Да
Параметр RefFrames формата               : 2 кадра
Идентификатор кодека                     : avc1
Идентификатор кодека/Информация          : Advanced Video Coding
Продолжительность                        : 40 м. 51 с.
Битрейт                                  : 1372 Кбит/сек
Максимальный битрейт                     : 3361 Кбит/сек
Ширина                                   : 960 пикселей
Высота                                   : 540 пикселей
Соотношение сторон                       : 16:9
Режим частоты кадров                     : Постоянный
Частота кадров                           : 25,000 кадров/сек
Цветовое пространство                    : YUV
Субдискретизация насыщенности            : 4:2:0
Битовая глубина                          : 8 бит
Тип развёртки                            : Прогрессивная
Бит/(Пиксели*Кадры)                      : 0.106
Размер потока                            : 401 Мбайт (93%)
Заголовок                                : h264:fps=25@GPAC0.7.0-rev0-gbd5c9af-master
Дата кодирования                         : UTC 2017-11-02 19:37:25
Дата пометки                             : UTC 2017-11-02 19:37:40
Аудио
Идентификатор                            : 2
Формат                                   : AAC
Формат/Информация                        : Advanced Audio Codec
Профиль формата                          : LC
Идентификатор кодека                     : mp4a-40-2
Продолжительность                        : 40 м. 51 с.
Вид битрейта                             : Переменный
Битрейт                                  : 93,6 Кбит/сек
Максимальный битрейт                     : 120 Кбит/сек
Каналы                                   : 2 канала
Расположение каналов                     : Front: L R
Частота                                  : 44,1 КГц
Частота кадров                           : 43,066 кадра/сек (1024 SPF)
Метод сжатия                             : С потерями
Размер потока                            : 27,3 Мбайт (6%)
Заголовок                                : aac:lang=ru@GPAC0.7.0-rev0-gbd5c9af-master
Язык                                     : Russian
Дата кодирования                         : UTC 2017-11-02 19:37:37
Дата пометки                             : UTC 2017-11-02 19:37:40
 
Не забывайте говорить Спасибо. Не уходите с раздачи!   
Торрент: Зарегистрирован [31 янв 2018, 12:07] Скачать торрент
Скачать торрент
[ Размер 17.93 КБ / Просмотров 9 ]
Статус:
Проверен
 
.torrent скачан: 0 раз
Хэш: cb88659b62bf178ab46416f7c20b404b3b17cac9
Размер: 3.36 ГБ (3 609 164 579 байт)
Стать Автором раздачи
 
 
Раздал: 0 байт
Скачал: 0 байт
Ратио: Inf.
Сообщения: 487468
Зарегистрирован: 17 апр 2014, 13:57


  • Похожие торренты
    Ответы
    Просмотры
    Последнее сообщение

Вернуться в Путешествия и туризм (видео)

Ресурс не предоставляет электронные версии произведений, а занимается лишь коллекционированием и каталогизацией ссылок, присылаемых и публикуемых на форуме нашими читателями. Если вы являетесь правообладателем какого-либо представленного материала и не желаете чтобы ссылка на него находилась в нашем каталоге, свяжитесь с нами и мы незамедлительно удалим её. Файлы для обмена на трекере предоставлены пользователями сайта, и администрация не несёт ответственности за их содержание. Просьба не заливать файлы, защищенные авторскими правами, а также файлы нелегального содержания!
cron