По волне моей памяти (Олег Нестеров) (Выпуски за 2012 год, 9 выпусков) [2012, Ток-шоу, Интервью, Телепередача, DVB]

 
 Статистика раздачи 
Размер: 8.18 ГБ   |  Зарегистрирован: 30 янв 2018, 01:41   |   .torrent скачан: 0 раз
Сидеров: 1  [ 0 байт/сек ]     Личеров: 0  [ 0 байт/сек ]  
  

По волне моей памяти (Олег Нестеров) (Выпуски за 2012 год, 9 выпусков) [2012, Ток-шоу, Интервью, Телепередача, DVB]

Сообщение Nakazhu » 30 янв 2018, 01:41

По волне моей памяти. Выпуски за 2012 год (Олег Нестеров)
Страна: Россия
Жанр: Ток-шоу, Интервью, Телепередача
Продолжительность: ~ 00:50:00 (каждый выпуск)
Язык: Русский
Год выпуска: 2012 г.
Выпущено: Россия, ЗАО «Первый канал. Всемирная сеть».
Описание: Эксклюзивные интервью с легендарными музыкантами. Новые встречи с любимыми героями советской и российской музыкальной сцены.
Это - непринужденный разговор о любимой музыке, воспитавшей несколько поколений - с ее создателями. Те люди, которые формировали музыкальное мировоззрение целой страны расскажут нам о своей работе, интересных историях, связанных с самыми известными произведениями и поделятся планами на будущее.
Ведущий: Олег Нестеров.
Содержание
01. Анатолий Могилевский;
02. Григорий Гладков;
03. Группа «Мистер Твистер»;
04. Елена Преснякова;
05. Левон Оганезов;
06. Максим Леонидов;
07. Михаил Козырев;
08. Эдита Пьеха (Часть - 1 и Часть - 2).
Источник: Собственный рип
Доп. информация: Рип чистый. Без посторонних надписей. Выкладывается как есть.

Качество: DVB
Контейнер: TS
Видео кодек: H.264
Аудио кодек: MP2
Видео: AVC, 720x576 (@1047x576), 16:9, 25.00fps, ~2 241 Kbps, 0.216 bit/pixel
Аудио: MPEG Audio 48000Hz stereo 192 Кбит/сек
#77
Гость выпуска:
Яркий представитель эпохи ВИА, солист ВИО-66 Ю. Саульского, "Самоцветов" и "Пламя". Звезда эмигрантской песни, Анатолий Могилевский, расскажет о тех временах, когда его адресом были, «не дом и не улица», а Советский Союз.
Певец Анатолий Могилевский рос в Риге и петь начал в самом модном ресторане города. Репертуар был исключительно «фирменным», а о советской песне Могилевский и знать не знал. Однажды в Ригу приехал с гастролями джазовый ансамбль Юрия Саульского, который пригласил талантливого певца к себе в коллектив. Могилевский перебрался в Москву, а из джазовой музыки пришел в эстраду.
Качество: DVB
Контейнер: TS
Видео кодек: H.264
Аудио кодек: MP2
Видео: AVC, 720x576 (@1047x576), 16:9, 25.00fps, 2 242 Kbps, 0.216 bit/pixel
Аудио: MPEG Audio 48000Hz stereo 192 Кбит/сек
Код: Выделить всё
Общее
Идентификатор                            : 1 (0x1)
Полное имя                               : G:\Раздачи\Программы, передачи, шоу, спектакли\По волне моей памяти\По волне моей памяти - 2012\По волне моей памяти. Анатолий Могилевский  (2012, DVB, Ток-шоу, Интервью, Эфир от 10.10.2017) (by Nokia5150).ts
Формат                                   : MPEG-TS
Размер файла                             : 867 Мбайт
Продолжительность                        : 47 м. 17 с.
Режим общего битрейта                    : Переменный
Общий поток                              : 2562 Кбит/сек
Видео
Идентификатор                            : 2607 (0xA2F)
Идентификатор меню                       : 607 (0x25F)
Формат                                   : AVC
Формат/Информация                        : Advanced Video Codec
Профиль формата                          : Main@L3
Настройки формата                        : CABAC / 3 Ref Frames
Параметр CABAC формата                   : Да
Параметр RefFrames формата               : 3 кадра
Идентификатор кодека                     : 27
Продолжительность                        : 47 м. 17 с.
Битрейт                                  : 2242 Кбит/сек
Ширина                                   : 720 пикселей
Высота                                   : 576 пикселей
Соотношение сторон                       : 16:9
Частота кадров                           : 25,000 кадров/сек
Стандарт вещания                         : Component
Цветовое пространство                    : YUV
Субдискретизация насыщенности            : 4:2:0
Битовая глубина                          : 8 бит
Тип развёртки                            : Чересстрочная
Метод сохранения типа развёртки          : Раздельные поля
Порядок развёртки                        : Верхнее поле первое
Бит/(Пиксели*Кадры)                      : 0.216
Размер потока                            : 758 Мбайт (87%)
Цветовой диапазон                        : Limited
Основные цвета                           : BT.601 PAL
Характеристики трансфера                 : BT.470 System B, BT.470 System G
Коэффициенты матрицы                     : BT.470 System B, BT.470 System G
Аудио
Идентификатор                            : 3607 (0xE17)
Идентификатор меню                       : 607 (0x25F)
Формат                                   : MPEG Audio
Версия формата                           : Version 1
Профиль формата                          : Layer 2
Идентификатор кодека                     : 3
Продолжительность                        : 47 м. 17 с.
Вид битрейта                             : Постоянный
Битрейт                                  : 192 Кбит/сек
Каналы                                   : 2 канала
Частота                                  : 48,0 КГц
Метод сжатия                             : С потерями
Задержка видео                           : -80 мс.
Размер потока                            : 64,9 Мбайт (7%)
Язык                                     : English
#77
Гость выпуска:
Олег Нестеров рассказывает о нелегком творческом пути композитора Гладкова.
В самом начале 80-х ведущий популярнейшей телевизионной программы «Вокруг смеха» — Александр Иванов — пригласил на сцену Г. Гладкова. Между ними состоялся примерно такой диалог:
— Вы композитор Гладков? — спросил Иванов.
— Да, я композитор Гладков.
— Так это вы автор замечательных «Бременских музыкантов»?
— Нет, не я.
— Но вы Гладков?
— Да, я Гладков.
— Ничего не понимаю... Вы Геннадий Гладков, композитор. Так?
— Не совсем. Я композитор Гладков, но Григорий.
— И что вы нам, в таком случае, предложите?
— Пластилиновую ворону!
Наверняка теперь вы все поняли, о ком идет речь! Композитор Григорий Гладков, в неизменной ковбойской шляпе, расскажет массу веселых историй и, конечно, споет! А помогать ему будет его дочь Саша. И все это в программе Олега Нестерова «По волне моей памяти».
Качество: DVB
Контейнер: TS
Видео кодек: H.264
Аудио кодек: MP2
Видео: AVC, 720x576 (@1047x576), 16:9, 25.00fps, 2 243 Kbps, 0.216 bit/pixel
Аудио: MPEG Audio 48000Hz stereo 192 Кбит/сек
Код: Выделить всё
Общее
Идентификатор                            : 1 (0x1)
Полное имя                               : G:\Раздачи\Программы, передачи, шоу, спектакли\По волне моей памяти\По волне моей памяти - 2012\По волне моей памяти. Григорий Гладков (2012, DVB, Ток-шоу, Интервью, Эфир от 15.10.2017) (by Nokia5150).ts
Формат                                   : MPEG-TS
Размер файла                             : 915 Мбайт
Продолжительность                        : 49 м. 53 с.
Режим общего битрейта                    : Переменный
Общий поток                              : 2564 Кбит/сек
Видео
Идентификатор                            : 2607 (0xA2F)
Идентификатор меню                       : 607 (0x25F)
Формат                                   : AVC
Формат/Информация                        : Advanced Video Codec
Профиль формата                          : Main@L3
Настройки формата                        : CABAC / 3 Ref Frames
Параметр CABAC формата                   : Да
Параметр RefFrames формата               : 3 кадра
Идентификатор кодека                     : 27
Продолжительность                        : 49 м. 53 с.
Битрейт                                  : 2243 Кбит/сек
Ширина                                   : 720 пикселей
Высота                                   : 576 пикселей
Соотношение сторон                       : 16:9
Частота кадров                           : 25,000 кадров/сек
Стандарт вещания                         : Component
Цветовое пространство                    : YUV
Субдискретизация насыщенности            : 4:2:0
Битовая глубина                          : 8 бит
Тип развёртки                            : Чересстрочная
Метод сохранения типа развёртки          : Раздельные поля
Порядок развёртки                        : Верхнее поле первое
Бит/(Пиксели*Кадры)                      : 0.216
Размер потока                            : 800 Мбайт (87%)
Цветовой диапазон                        : Limited
Основные цвета                           : BT.601 PAL
Характеристики трансфера                 : BT.470 System B, BT.470 System G
Коэффициенты матрицы                     : BT.470 System B, BT.470 System G
Аудио
Идентификатор                            : 3607 (0xE17)
Идентификатор меню                       : 607 (0x25F)
Формат                                   : MPEG Audio
Версия формата                           : Version 1
Профиль формата                          : Layer 2
Идентификатор кодека                     : 3
Продолжительность                        : 49 м. 53 с.
Вид битрейта                             : Постоянный
Битрейт                                  : 192 Кбит/сек
Каналы                                   : 2 канала
Частота                                  : 48,0 КГц
Метод сжатия                             : С потерями
Задержка видео                           : -80 мс.
Размер потока                            : 68,5 Мбайт (7%)
Язык                                     : English
#77
Гость выпуска:
Простые слушатели называют этот стиль «рок-н-ролл», а специалисты и поклонники – «рокабилли». Самая известная отечественная рокабилли группа «Мистер Твистер» белее 25 лет пропагандирует западные ценности далеких 50-х годов прошлого века.
Каждое их выступление — это мощный коктейль из диких танцев, первобытного угара и экзотических костюмов и причесок. Легендарный барабанщик «Твистеров», Валерий Лысенко по прозвищу «Ёж», расскажет о джаз-роке, КГБ, Битлз, церковном хоре, монгольских комсомольцах и Сергее Пенкине. Такой фантастический винегрет возможен только в программе Олега Нестерова «По волне моей памяти».
Качество: DVB
Контейнер: TS
Видео кодек: H.264
Аудио кодек: MP2
Видео: AVC, 720x576 (@1047x576), 16:9, 25.00fps, 2 240 Kbps, 0.216 bit/pixel
Аудио: MPEG Audio 48000Hz stereo 192 Кбит/сек
Общее
Идентификатор : 1 (0x1)
Полное имя : G:\Раздачи\Программы, передачи, шоу, спектакли\По волне моей памяти\По волне моей памяти. Группа «Мистер Твистер» (2012, DVB, Ток-шоу, Интервью, Эфир от 10.09.2017) (by Nokia5150).ts
Формат : MPEG-TS
Размер файла : 916 Мбайт
Продолжительность : 50 м. 2 с.
Режим общего битрейта : Переменный
Общий поток : 2560 Кбит/сек
Видео
Идентификатор : 2607 (0xA2F)
Идентификатор меню : 607 (0x25F)
Формат : AVC
Формат/Информация : Advanced Video Codec
Профиль формата : Main@L3
Параметр CABAC формата : Да
Параметр RefFrames формата : 3 кадра
Идентификатор кодека : 27
Продолжительность : 50 м. 2 с.
Битрейт : 2240 Кбит/сек
Ширина : 720 пикселей
Высота : 576 пикселей
Соотношение сторон : 16:9
Частота кадров : 25,000 кадров/сек
Стандарт вещания : Component
Цветовое пространство : YUV
Субдискретизация насыщенности : 4:2:0
Битовая глубина : 8 бит
Тип развёртки : Чересстрочная
Метод сохранения типа развёртки : Раздельные поля
Порядок развёртки : Верхнее поле первое
Бит/(Пиксели*Кадры) : 0.216
Размер потока : 802 Мбайт (87%)
Цветовой диапазон : Limited
Основные цвета : BT.601 PAL
Характеристики трансфера : BT.470 System B, BT.470 System G
Коэффициенты матрицы : BT.470 System B, BT.470 System G
Аудио
Идентификатор : 3607 (0xE17)
Идентификатор меню : 607 (0x25F)
Формат : MPEG Audio
Версия формата : Version 1
Профиль формата : Layer 2
Идентификатор кодека : 3
Продолжительность : 50 м. 2 с.
Вид битрейта : Постоянный
Битрейт : 192 Кбит/сек
Каналы : 2 канала
Частота : 48,0 КГц
Метод сжатия : С потерями
Размер потока : 68,7 Мбайт (7%)
Язык : English
#77
Гость выпуска:
На сцене она может кривляться, а может запросто пройтись колесом. И это не панк и не клоун. Это Елена Петровна Преснякова - жена Петровича, мать Володи и бабушка Никиты. В чем секрет ее молодости? Скорее всего, в любви. К сцене и к жизни. А саму Преснякову любят все, и наша программа - не исключение. И назвать Преснякову бабушкой не поворачивается язык. В передаче "Елена Прекрасная" расскажет о джазе, эстраде, сыне Володе и, конечно, о своем бесценном Петровиче!
Качество: DVB
Контейнер: TS
Видео кодек: H.264
Аудио кодек: MP2
Видео: AVC, 720x576 (@1047x576), 16:9, 25.00fps, 2 125 Kbps, 0.205 bit/pixel
Аудио: MPEG Audio 48000Hz stereo 192 Кбит/сек
Код: Выделить всё
Общее
Идентификатор                            : 1 (0x1)
Полное имя                               : G:\Раздачи\Программы, передачи, шоу, спектакли\По волне моей памяти\По волне моей памяти - 2012\По волне моей памяти. Елена Преснякова  (2012, DVB, Ток-шоу, Интервью, Эфир от 27.01.2018) (by Nokia5150).ts
Формат                                   : MPEG-TS
Размер файла                             : 937 Мбайт
Продолжительность                        : 53 м. 41 с.
Режим общего битрейта                    : Переменный
Общий поток                              : 2439 Кбит/сек
Видео
Идентификатор                            : 2607 (0xA2F)
Идентификатор меню                       : 607 (0x25F)
Формат                                   : AVC
Формат/Информация                        : Advanced Video Codec
Профиль формата                          : Main@L3
Настройки формата                        : CABAC / 3 Ref Frames
Параметр CABAC формата                   : Да
Параметр RefFrames формата               : 3 кадра
Идентификатор кодека                     : 27
Продолжительность                        : 53 м. 41 с.
Битрейт                                  : 2125 Кбит/сек
Ширина                                   : 720 пикселей
Высота                                   : 576 пикселей
Соотношение сторон                       : 16:9
Частота кадров                           : 25,000 кадров/сек
Стандарт вещания                         : Component
Цветовое пространство                    : YUV
Субдискретизация насыщенности            : 4:2:0
Битовая глубина                          : 8 бит
Тип развёртки                            : Чересстрочная
Метод сохранения типа развёртки          : Раздельные поля
Порядок развёртки                        : Верхнее поле первое
Бит/(Пиксели*Кадры)                      : 0.205
Размер потока                            : 816 Мбайт (87%)
Цветовой диапазон                        : Limited
Основные цвета                           : BT.601 PAL
Характеристики трансфера                 : BT.470 System B, BT.470 System G
Коэффициенты матрицы                     : BT.470 System B, BT.470 System G
Аудио
Идентификатор                            : 3607 (0xE17)
Идентификатор меню                       : 607 (0x25F)
Формат                                   : MPEG Audio
Версия формата                           : Version 1
Профиль формата                          : Layer 2
Идентификатор кодека                     : 3
Продолжительность                        : 53 м. 41 с.
Вид битрейта                             : Постоянный
Битрейт                                  : 192 Кбит/сек
Каналы                                   : 2 канала
Частота                                  : 48,0 КГц
Метод сжатия                             : С потерями
Размер потока                            : 73,7 Мбайт (8%)
Язык                                     : German
#77
Гость выпуска:
Есть в Москве район Перово, который в свое время, считался очень хулиганским. И вот однажды в квартиру семьи Оганезовых постучали…
Незнакомцы попросили у встревоженной хозяйки (за плату, конечно) ее маленького сына. Через пару часов его вернули родителям. Оказалось, что про паренька — талантливого пианиста — прослышали владельцы подпольной студии звукозаписи. Лева наиграл на магнитофон популярную в те годы мелодию «Буги-вуги». Можно представить удивление Оганезова, когда через несколько лет он увидел эту запись на музыкальной толкучке у торговцев пластинками «на костях». Сегодня перовский парень Левон Оганезов в гостях у перовского парня Олега Нестерова программе «По волне моей памяти».
Качество: DVB
Контейнер: TS
Видео кодек: H.264
Аудио кодек: MP2
Видео: AVC, 720x576 (@1047x576), 16:9, 25.00fps, 2 241 Kbps, 0.216 bit/pixel
Аудио: MPEG Audio 48000Hz stereo 192 Кбит/сек
Общее
Идентификатор : 1 (0x1)
Полное имя : G:\Раздачи\Программы, передачи, шоу, спектакли\По волне моей памяти\По волне моей памяти. Левон Оганезов (2012, DVB, Ток-шоу, Интервью, Эфир от 16.08.2017) (by Nokia5150).ts
Формат : MPEG-TS
Размер файла : 961 Мбайт
Продолжительность : 52 м. 27 с.
Режим общего битрейта : Переменный
Общий поток : 2562 Кбит/сек
Видео
Идентификатор : 2607 (0xA2F)
Идентификатор меню : 607 (0x25F)
Формат : AVC
Формат/Информация : Advanced Video Codec
Профиль формата : Main@L3
Параметр CABAC формата : Да
Параметр RefFrames формата : 3 кадра
Идентификатор кодека : 27
Продолжительность : 52 м. 27 с.
Битрейт : 2241 Кбит/сек
Ширина : 720 пикселей
Высота : 576 пикселей
Соотношение сторон : 16:9
Частота кадров : 25,000 кадров/сек
Стандарт вещания : Component
Цветовое пространство : YUV
Субдискретизация насыщенности : 4:2:0
Битовая глубина : 8 бит
Тип развёртки : Чересстрочная
Метод сохранения типа развёртки : Раздельные поля
Порядок развёртки : Верхнее поле первое
Бит/(Пиксели*Кадры) : 0.216
Размер потока : 841 Мбайт (87%)
Цветовой диапазон : Limited
Основные цвета : BT.601 PAL
Характеристики трансфера : BT.470 System B, BT.470 System G
Коэффициенты матрицы : BT.470 System B, BT.470 System G
Аудио
Идентификатор : 3607 (0xE17)
Идентификатор меню : 607 (0x25F)
Формат : MPEG Audio
Версия формата : Version 1
Профиль формата : Layer 2
Идентификатор кодека : 3
Продолжительность : 52 м. 27 с.
Вид битрейта : Постоянный
Битрейт : 192 Кбит/сек
Каналы : 2 канала
Частота : 48,0 КГц
Метод сжатия : С потерями
Размер потока : 72,0 Мбайт (7%)
Язык : English
#77
Гость выпуска:
Максим Леонидов – гость Олега Нестерова и программы «По волне моей памяти».
С самого начала было ясно: когда Максим Леонидов вырастет, он станет актером или музыкантом. Леонидов решил не мелочиться и освоил обе профессии. Между первым (хулиганским) появлением на театральной сцене и взрослой работой — мюзиклом «Растратчики» — целая жизнь и огромная всенародная популярность. Хоровое училище; театральный ВУЗ; бит-квартет «Секрет», возникший в Ленинграде в начале 80-х; съемки на телевидении и в кино; главная роль в спектакле про Элвиса Пресли; отъезд в Израиль и возвращение на Родину с хитом «Девочка-видение»… Обычная жизнь человека, которому трудно усидеть на месте.
Качество: DVB
Контейнер: TS
Видео кодек: H.264
Аудио кодек: MP2
Видео: AVC, 720x576 (@1047x576), 16:9, 25.00fps, 2 240 Kbps, 0.216 bit/pixel
Аудио: MPEG Audio 48000Hz stereo 192 Кбит/сек
Общее
Идентификатор : 1 (0x1)
Полное имя : G:\Раздачи\Программы, передачи, шоу, спектакли\По волне моей памяти\По волне моей памяти. Максим Леонидов (2012, DVB, Ток-шоу, Интервью, Эфир от 17.09.2017) (by Nokia5150).ts
Формат : MPEG-TS
Размер файла : 951 Мбайт
Продолжительность : 51 м. 54 с.
Режим общего битрейта : Переменный
Общий поток : 2560 Кбит/сек
Видео
Идентификатор : 2607 (0xA2F)
Идентификатор меню : 607 (0x25F)
Формат : AVC
Формат/Информация : Advanced Video Codec
Профиль формата : Main@L3
Параметр CABAC формата : Да
Параметр RefFrames формата : 3 кадра
Идентификатор кодека : 27
Продолжительность : 51 м. 54 с.
Битрейт : 2240 Кбит/сек
Ширина : 720 пикселей
Высота : 576 пикселей
Соотношение сторон : 16:9
Частота кадров : 25,000 кадров/сек
Стандарт вещания : Component
Цветовое пространство : YUV
Субдискретизация насыщенности : 4:2:0
Битовая глубина : 8 бит
Тип развёртки : Чересстрочная
Метод сохранения типа развёртки : Раздельные поля
Порядок развёртки : Верхнее поле первое
Бит/(Пиксели*Кадры) : 0.216
Размер потока : 832 Мбайт (87%)
Цветовой диапазон : Limited
Основные цвета : BT.601 PAL
Характеристики трансфера : BT.470 System B, BT.470 System G
Коэффициенты матрицы : BT.470 System B, BT.470 System G
Аудио
Идентификатор : 3607 (0xE17)
Идентификатор меню : 607 (0x25F)
Формат : MPEG Audio
Версия формата : Version 1
Профиль формата : Layer 2
Идентификатор кодека : 3
Продолжительность : 51 м. 54 с.
Вид битрейта : Постоянный
Битрейт : 192 Кбит/сек
Каналы : 2 канала
Частота : 48,0 КГц
Метод сжатия : С потерями
Размер потока : 71,3 Мбайт (7%)
Язык : English
#77
Гость выпуска:
Легендарный радио и телеведущий, программный директор нескольких радиостанций, профессионал своего дела и искренний поклонник рок-музыки Михаил Козырев гость Олега Нестерова и программы «По волне моей памяти».
Когда-нибудь, когда напишут большую энциклопедию отечественной рок-музыки, имя Михаила Козырева будет встречаться в ней не раз и не два. Уже сейчас ясно, что именно благодаря ему, так называемый «русский рок», не потерял своего значения в 21 веке. Не будь Козырева — радиостанция «Maximum» не обрела культовый статус. Не появилось бы, не менее культовое, «Наше радио». А грандиозные праздники рок-музыки — фестивали «Максидром» и «Нашествие»? Без Михаила Козырева они вряд ли бы состоялись. Не говоря уже про десятки новых групп и исполнителей, которым он дал путевку в жизнь.
Качество: DVB
Контейнер: TS
Видео кодек: H.264
Аудио кодек: MP2
Видео: AVC, 720x576 (@1047x576), 16:9, 25.00fps, 2 240 Kbps, 0.216 bit/pixel
Аудио: MPEG Audio 48000Hz stereo 192 Кбит/сек
Общее
Идентификатор : 1 (0x1)
Полное имя : G:\Раздачи\Программы, передачи, шоу, спектакли\По волне моей памяти\По волне моей памяти. Михаил Козырев (2012, DVB, Ток-шоу, Интервью, Эфир от 21.08.2017) (by Nokia5150).ts
Формат : MPEG-TS
Размер файла : 955 Мбайт
Продолжительность : 52 м. 6 с.
Режим общего битрейта : Переменный
Общий поток : 2561 Кбит/сек
Видео
Идентификатор : 2607 (0xA2F)
Идентификатор меню : 607 (0x25F)
Формат : AVC
Формат/Информация : Advanced Video Codec
Профиль формата : Main@L3
Параметр CABAC формата : Да
Параметр RefFrames формата : 3 кадра
Идентификатор кодека : 27
Продолжительность : 52 м. 6 с.
Битрейт : 2240 Кбит/сек
Ширина : 720 пикселей
Высота : 576 пикселей
Соотношение сторон : 16:9
Частота кадров : 25,000 кадров/сек
Стандарт вещания : Component
Цветовое пространство : YUV
Субдискретизация насыщенности : 4:2:0
Битовая глубина : 8 бит
Тип развёртки : Чересстрочная
Метод сохранения типа развёртки : Раздельные поля
Порядок развёртки : Верхнее поле первое
Бит/(Пиксели*Кадры) : 0.216
Размер потока : 835 Мбайт (87%)
Цветовой диапазон : Limited
Основные цвета : BT.601 PAL
Характеристики трансфера : BT.470 System B, BT.470 System G
Коэффициенты матрицы : BT.470 System B, BT.470 System G
Аудио
Идентификатор : 3607 (0xE17)
Идентификатор меню : 607 (0x25F)
Формат : MPEG Audio
Версия формата : Version 1
Профиль формата : Layer 2
Идентификатор кодека : 3
Продолжительность : 52 м. 6 с.
Вид битрейта : Постоянный
Битрейт : 192 Кбит/сек
Каналы : 2 канала
Частота : 48,0 КГц
Метод сжатия : С потерями
Задержка видео : -40 мс.
Размер потока : 71,6 Мбайт (7%)
Язык : English
#77
Гость выпуска:
Легенду советской эстрады мы ждали в гости целых пять лет. И наконец, с радостью можем сказать: "У нас в гостях Эдита Пьеха! ".
Больше полувека на сцене: в нашей стране случай уникальный. А ведь этого могло и не случиться. Если бы польская девочка не прошла конкурс и не попала на учебу в Ленинград. Если бы в Ленинграде не пришла на прослушивание в хор польского землячества. Если бы не поверила в себя и стала учительницей в родной Польше. Но все сложилось именно так, как сложилось. И теперь Эдита Пьеха — больше, чем просто певица. Она стала настоящим символом нашей страны, нашей песни.
Певица расскажет о своей, полной ярких событий жизни, о творчестве и о том, зачем в начале своей карьеры она перед каждым концертом мазала ноги вазелином.
Качество: DVB
Контейнер: TS
Видео кодек: H.264
Аудио кодек: MP2
Видео: AVC, 720x576 (@1047x576), 16:9, 25.00fps, 2 242 Kbps, 0.216 bit/pixel
Аудио: MPEG Audio 48000Hz stereo 192 Кбит/сек
Общее
Идентификатор : 1 (0x1)
Полное имя : G:\Раздачи\Программы, передачи, шоу, спектакли\По волне моей памяти\По волне моей памяти. Эдита Пьеха. Часть - 1 (2012, DVB, Ток-шоу, Интервью, Эфир от 14.09.2017) (by Nokia5150).ts
Формат : MPEG-TS
Размер файла : 929 Мбайт
Продолжительность : 50 м. 40 с.
Режим общего битрейта : Переменный
Общий поток : 2563 Кбит/сек
Видео
Идентификатор : 2607 (0xA2F)
Идентификатор меню : 607 (0x25F)
Формат : AVC
Формат/Информация : Advanced Video Codec
Профиль формата : Main@L3
Параметр CABAC формата : Да
Параметр RefFrames формата : 3 кадра
Идентификатор кодека : 27
Продолжительность : 50 м. 40 с.
Битрейт : 2242 Кбит/сек
Ширина : 720 пикселей
Высота : 576 пикселей
Соотношение сторон : 16:9
Частота кадров : 25,000 кадров/сек
Стандарт вещания : Component
Цветовое пространство : YUV
Субдискретизация насыщенности : 4:2:0
Битовая глубина : 8 бит
Тип развёртки : Чересстрочная
Метод сохранения типа развёртки : Раздельные поля
Порядок развёртки : Верхнее поле первое
Бит/(Пиксели*Кадры) : 0.216
Размер потока : 813 Мбайт (87%)
Цветовой диапазон : Limited
Основные цвета : BT.601 PAL
Характеристики трансфера : BT.470 System B, BT.470 System G
Коэффициенты матрицы : BT.470 System B, BT.470 System G
Аудио
Идентификатор : 3607 (0xE17)
Идентификатор меню : 607 (0x25F)
Формат : MPEG Audio
Версия формата : Version 1
Профиль формата : Layer 2
Идентификатор кодека : 3
Продолжительность : 50 м. 40 с.
Вид битрейта : Постоянный
Битрейт : 192 Кбит/сек
Каналы : 2 канала
Частота : 48,0 КГц
Метод сжатия : С потерями
Задержка видео : -80 мс.
Размер потока : 69,6 Мбайт (7%)
Язык : English
Общее
Идентификатор : 1 (0x1)
Полное имя : G:\Раздачи\Программы, передачи, шоу, спектакли\По волне моей памяти\По волне моей памяти. Эдита Пьеха. Часть - 2 (2012, DVB, Ток-шоу, Интервью, Эфир от 15.09.2017) (by Nokia5150).ts
Формат : MPEG-TS
Размер файла : 949 Мбайт
Продолжительность : 51 м. 44 с.
Режим общего битрейта : Переменный
Общий поток : 2563 Кбит/сек
Видео
Идентификатор : 2607 (0xA2F)
Идентификатор меню : 607 (0x25F)
Формат : AVC
Формат/Информация : Advanced Video Codec
Профиль формата : Main@L3
Параметр CABAC формата : Да
Параметр RefFrames формата : 3 кадра
Идентификатор кодека : 27
Продолжительность : 51 м. 44 с.
Битрейт : 2242 Кбит/сек
Ширина : 720 пикселей
Высота : 576 пикселей
Соотношение сторон : 16:9
Частота кадров : 25,000 кадров/сек
Стандарт вещания : Component
Цветовое пространство : YUV
Субдискретизация насыщенности : 4:2:0
Битовая глубина : 8 бит
Тип развёртки : Чересстрочная
Метод сохранения типа развёртки : Раздельные поля
Порядок развёртки : Верхнее поле первое
Бит/(Пиксели*Кадры) : 0.216
Размер потока : 830 Мбайт (87%)
Цветовой диапазон : Limited
Основные цвета : BT.601 PAL
Характеристики трансфера : BT.470 System B, BT.470 System G
Коэффициенты матрицы : BT.470 System B, BT.470 System G
Аудио
Идентификатор : 3607 (0xE17)
Идентификатор меню : 607 (0x25F)
Формат : MPEG Audio
Версия формата : Version 1
Профиль формата : Layer 2
Идентификатор кодека : 3
Продолжительность : 51 м. 44 с.
Вид битрейта : Постоянный
Битрейт : 192 Кбит/сек
Каналы : 2 канала
Частота : 48,0 КГц
Метод сжатия : С потерями
Задержка видео : -120 мс.
Размер потока : 71,1 Мбайт (7%)
Язык : English

Внимание! Раздача ведётся путём добавления новых выпусков; при каждом добавлении создаётся новый торрент. Чтобы начать докачку нового выпуска, пользователям необходимо сделать следующее:
(1) остановить скачивание,
(2) удалить старый торрент у себя из клиента (старые выпуски удалять не надо),
(3) скачать новый торрент и запустить его у себя в клиенте вместо старого, при этом указать клиенту путь в старую папку куда и должно происходить скачивание новых выпусков.

Ваш клиент при этом должен произвести хеширование (проверку) старой папки (если не производит сам - помогите ему сделать это), и будет докачивать только те выпуски которых у вас ещё нет. Старые выпуски при этом не удаляются, а продолжают раздаваться!
Eсли вы уже удалили старые выпуски, то предотвратить повторную закачку старых выпусков можно, отжав галочку в соответсвующих местах при запуске нового торрента. По возможности, желательно не удалять старые выпуски как можно дольше чтобы релизёр не столько продолжал раздавать старые выпуски, а смог сконцентрироваться на новых.

 
Не забывайте говорить Спасибо. Не уходите с раздачи!   
Торрент: Зарегистрирован [30 янв 2018, 01:41] Для скачивания .torrent
необходима регистрация
Или скачать с помощью
MediaGet
Статус:
Проверен
 
.torrent скачан: 0 раз
Хэш: cce394c578fdeef36f6c8f8b8fafce08658f9bb8
Размер: 8.18 ГБ (8 785 399 612 байт)
Стать Автором раздачи
 
 
Раздал: 0 байт
Скачал: 0 байт
Ратио: Inf.
Сообщения: 435541
Зарегистрирован: 17 апр 2014, 13:57


  • Похожие торренты
    Ответы
    Просмотры
    Последнее сообщение

Вернуться в Документальные фильмы и телепередачи о музыке (в том числе биографии)

Ресурс не предоставляет электронные версии произведений, а занимается лишь коллекционированием и каталогизацией ссылок, присылаемых и публикуемых на форуме нашими читателями. Если вы являетесь правообладателем какого-либо представленного материала и не желаете чтобы ссылка на него находилась в нашем каталоге, свяжитесь с нами и мы незамедлительно удалим её. Файлы для обмена на трекере предоставлены пользователями сайта, и администрация не несёт ответственности за их содержание. Просьба не заливать файлы, защищенные авторскими правами, а также файлы нелегального содержания!
cron