По волне моей памяти (Олег Нестеров) (Выпуски за 2007 год, 11 выпусков) [2007, Ток-шоу, Интервью, Телепередача, DVB]

 
 Статистика раздачи 
Размер: 10.42 ГБ   |  Зарегистрирован: 30 янв 2018, 01:12   |   .torrent скачан: 0 раз
Сидеров: 1  [ 0 байт/сек ]     Личеров: 0  [ 0 байт/сек ]  
  

По волне моей памяти (Олег Нестеров) (Выпуски за 2007 год, 11 выпусков) [2007, Ток-шоу, Интервью, Телепередача, DVB]

Сообщение Nakazhu » 30 янв 2018, 01:12

По волне моей памяти. Выпуски за 2007 год (Олег Нестеров)
Страна: Россия
Жанр: Ток-шоу, Интервью, Телепередача
Продолжительность: ~ 00:50:00 (каждый выпуск)
Язык: Русский
Год выпуска: 2007 г.
Выпущено: Россия, ЗАО «Первый канал. Всемирная сеть».
Описание: Эксклюзивные интервью с легендарными музыкантами. Новые встречи с любимыми героями советской и российской музыкальной сцены.
Это - непринужденный разговор о любимой музыке, воспитавшей несколько поколений - с ее создателями. Те люди, которые формировали музыкальное мировоззрение целой страны расскажут нам о своей работе, интересных историях, связанных с самыми известными произведениями и поделятся планами на будущее.
Ведущий: Олег Нестеров.
Содержание
01. Анна Герман;
02. Валентина Легкоступова;
03. Валерий Гаина;
04. Валерий Ярушин;
05. Елена Камбурова;
06. Галина Беседина;
07. Георгий Гаранян;
08. Илона Броневицкая;
09. Иосиф Кобзон;
10. Михаил Боярский;
11. Оскар Фельцман;
12. Татьяна Шмыга.
Источник: Собственный рип
Доп. информация: Рип чистый. Без посторонних надписей. Выкладывается как есть.

Качество: DVB
Контейнер: TS
Видео кодек: H.264
Аудио кодек: MP2
Видео: AVC, 720x576 (@1047x576), 16:9, 25.00fps, ~2 241 Kbps, 0.216 bit/pixel
Аудио: MPEG Audio 48000Hz stereo 192 Кбит/сек
#77
Гость выпуска:
Очередная программа цикла "По волне моей памяти" с ведущим Олегом Нестеровым посвящена жизни и творчеству польской певицы Анны Герман.
Как-то режиссер Евгений Матвеев решил снимать фильм по роману Петра Проскурина "Любовь земная". Мысль о том, что в этом фильме непременно должен звучать божественный голос Анны Герман, пришла к Матвееву мгновенно. Его осенило: он снял телефонную трубку, набрал номер композитора Евгения Птичкина: "Женя, извини, что так поздно! Мы должны сделать песню для Анны Герман!". Чуть позже Роберт Рождественский напишет к этой песне слова: "Покроется небо пылинками звезд, и выгнутся ветки упруго, тебя я услышу за тысячи верст, мы эхо, мы эхо, мы долгое эхо друг-друга…" Матвеев ликовал от радости, и буквально через день в Варшаву полетело письмо с клавиром "Эхо любви" и просьбой приехать на запись. Ответ был получен практически моментально: "Тональность такая-то. Вылетаю. Анна".
Качество: DVB
Контейнер: TS
Видео кодек: H.264
Аудио кодек: MP2
Видео: AVC, 720x576 (@1047x576), 16:9, 25.00fps, 2 242 Kbps, 0.216 bit/pixel
Аудио: MPEG Audio 48000Hz stereo 192 Кбит/сек
Общее
Идентификатор : 1 (0x1)
Полное имя : G:\Раздачи\Программы, передачи, шоу, спектакли\По волне моей памяти\По волне моей памяти. Анна Герман (2007, DVB, Ток-шоу, Интервью, Эфир от 29.08.2017) (by Nokia5150).ts
Формат : MPEG-TS
Размер файла : 921 Мбайт
Продолжительность : 50 м. 16 с.
Режим общего битрейта : Переменный
Общий поток : 2562 Кбит/сек
Видео
Идентификатор : 2607 (0xA2F)
Идентификатор меню : 607 (0x25F)
Формат : AVC
Формат/Информация : Advanced Video Codec
Профиль формата : Main@L3
Параметр CABAC формата : Да
Параметр RefFrames формата : 3 кадра
Идентификатор кодека : 27
Продолжительность : 50 м. 16 с.
Битрейт : 2242 Кбит/сек
Ширина : 720 пикселей
Высота : 576 пикселей
Соотношение сторон : 16:9
Частота кадров : 25,000 кадров/сек
Стандарт вещания : Component
Цветовое пространство : YUV
Субдискретизация насыщенности : 4:2:0
Битовая глубина : 8 бит
Тип развёртки : Чересстрочная
Метод сохранения типа развёртки : Раздельные поля
Порядок развёртки : Верхнее поле первое
Бит/(Пиксели*Кадры) : 0.216
Размер потока : 806 Мбайт (87%)
Цветовой диапазон : Limited
Основные цвета : BT.601 PAL
Характеристики трансфера : BT.470 System B, BT.470 System G
Коэффициенты матрицы : BT.470 System B, BT.470 System G
Аудио
Идентификатор : 3607 (0xE17)
Идентификатор меню : 607 (0x25F)
Формат : MPEG Audio
Версия формата : Version 1
Профиль формата : Layer 2
Идентификатор кодека : 3
Продолжительность : 50 м. 16 с.
Вид битрейта : Постоянный
Битрейт : 192 Кбит/сек
Каналы : 2 канала
Частота : 48,0 КГц
Метод сжатия : С потерями
Задержка видео : -120 мс.
Размер потока : 69,0 Мбайт (7%)
Язык : English
#77
Гость выпуска:
О своей жизни и о своих песнях в студии телеканала «Время» расскажет Валентина Легкоступова.
«После успеха „Ягоды-малины“ я получала мешки писем. У меня появился напряженнейший график гастролей — сто двадцать концертов в месяц. Однажды, правда, случился казус: примерно на восемьсот пятидесятом концерте я забыла слова „Ягоды-малины“. Наверное, в мозгу сработал какой-то защитный механизм. Подошла к своим музыкантам и спрашиваю: „Подскажите, что петь-то?“ Но не испугалась, наоборот, мне смешно стало. Песня была настолько популярной, что, как некоторые шутили, только из утюга не звучала. „Мы так хорошо заработали на тебе в то время“, — говорили потом мне музыканты в ресторанах. „Ягоду-малину“ по двадцать раз в день заказывали» — это слова любимой многими певицы Валентины Легкоступовой.
Качество: DVB
Контейнер: TS
Видео кодек: H.264
Аудио кодек: MP2
Видео: AVC, 720x576 (@1047x576), 16:9, 25.00fps, 2 239 Kbps, 0.216 bit/pixel
Аудио: MPEG Audio 48000Hz stereo 192 Кбит/сек
Общее
Идентификатор : 1 (0x1)
Полное имя : G:\Раздачи\Программы, передачи, шоу, спектакли\По волне моей памяти\По волне моей памяти - 2007\По волне моей памяти. Валентина Легкоступова (2007, DVB, Ток-шоу, Интервью, Эфир от 27.09.2017) (by Nokia5150).ts
Формат : MPEG-TS
Размер файла : 850 Мбайт
Продолжительность : 46 м. 24 с.
Режим общего битрейта : Переменный
Общий поток : 2560 Кбит/сек
Видео
Идентификатор : 2607 (0xA2F)
Идентификатор меню : 607 (0x25F)
Формат : AVC
Формат/Информация : Advanced Video Codec
Профиль формата : Main@L3
Параметр CABAC формата : Да
Параметр RefFrames формата : 3 кадра
Идентификатор кодека : 27
Продолжительность : 46 м. 24 с.
Битрейт : 2239 Кбит/сек
Ширина : 720 пикселей
Высота : 576 пикселей
Соотношение сторон : 16:9
Частота кадров : 25,000 кадров/сек
Стандарт вещания : Component
Цветовое пространство : YUV
Субдискретизация насыщенности : 4:2:0
Битовая глубина : 8 бит
Тип развёртки : Чересстрочная
Метод сохранения типа развёртки : Раздельные поля
Порядок развёртки : Верхнее поле первое
Бит/(Пиксели*Кадры) : 0.216
Размер потока : 743 Мбайт (87%)
Цветовой диапазон : Limited
Основные цвета : BT.601 PAL
Характеристики трансфера : BT.470 System B, BT.470 System G
Коэффициенты матрицы : BT.470 System B, BT.470 System G
Аудио
Идентификатор : 3607 (0xE17)
Идентификатор меню : 607 (0x25F)
Формат : MPEG Audio
Версия формата : Version 1
Профиль формата : Layer 2
Идентификатор кодека : 3
Продолжительность : 46 м. 24 с.
Вид битрейта : Постоянный
Битрейт : 192 Кбит/сек
Каналы : 2 канала
Частота : 48,0 КГц
Метод сжатия : С потерями
Размер потока : 63,7 Мбайт (8%)
Язык : English
#77
Гость выпуска:
Сегодня в гостях у Олега Нестерова лидер и один из основателей группы «Круиз» — Валерий Гаина.
В начале 80-ых песни «Не позволяй душе лениться» и «Крутится волчок» были суперпопулярными, их знали все поклонники рока в Советском Союзе и фанаты группы «Круиз». Потом — смена состава и музыкального направления. На волне перестройки «Круиз» попадает в тройку ведущих хэви-металлических групп Союза. Как результат -диск в ФРГ и долгие гастроли по городам и весям Европы.
Качество: DVB
Контейнер: TS
Видео кодек: H.264
Аудио кодек: MP2
Видео: AVC, 720x576 (@1047x576), 16:9, 25.00fps, 2 240 Kbps, 0.216 bit/pixel
Аудио: MPEG Audio 48000Hz stereo 192 Кбит/сек
Общее
Идентификатор : 1 (0x1)
Полное имя : G:\Раздачи\Программы, передачи, шоу, спектакли\По волне моей памяти\По волне моей памяти. Валерий Гаина (2007, DVB, Ток-шоу, Интервью, Эфир от 29.07.2017) (by Nokia5150).ts
Формат : MPEG-TS
Размер файла : 924 Мбайт
Продолжительность : 50 м.
Режим общего битрейта : Переменный
Общий поток : 2561 Кбит/сек
Видео
Идентификатор : 2607 (0xA2F)
Идентификатор меню : 607 (0x25F)
Формат : AVC
Формат/Информация : Advanced Video Codec
Профиль формата : Main@L3
Параметр CABAC формата : Да
Параметр ReFrames формата : 3 кадра
Идентификатор кодека : 27
Продолжительность : 50 м.
Битрейт : 2240 Кбит/сек
Ширина : 720 пикселей
Высота : 576 пикселей
Соотношение сторон : 16:9
Частота кадров : 25,000 кадров/сек
Стандарт вещания : Component
Цветовое пространство : YUV
Субдискретизация насыщенности : 4:2:0
Битовая глубина : 8 бит
Тип развёртки : Чересстрочная
Порядок развёртки : Верхнее поле первое
Бит/(Пиксели*Кадры) : 0.216
Размер потока : 808 Мбайт (87%)
colour_range : Limited
Основные цвета : BT.601 PAL
Характеристики трансфера : BT.470 System B, BT.470 System G
Коэффициенты матрицы : BT.601
Аудио
Идентификатор : 3607 (0xE17)
Идентификатор меню : 607 (0x25F)
Формат : MPEG Audio
Версия формата : Version 1
Профиль формата : Layer 2
Идентификатор кодека : 3
Продолжительность : 50 м.
Вид битрейта : Постоянный
Битрейт : 192 Кбит/сек
Каналы : 2 канала
Частота : 48,0 КГц
Метод сжатия : С потерями
Размер потока : 69,3 Мбайт (7%)
Язык : English
#77
Гость выпуска:
И швец, и жнец и на дуде игрец, Валерий Ярушин, расскажет зрителям программы «По волне моей памяти» о своей любви к «Битлз», о взлетах и неудачах, о семье и, конечно, о музыке.
...1970 год. Челябинск. Слияние нескольких любительских групп дало жизнь новому ансамблю, обосновавшемуся на сцене Дворца культуры железнодорожников. Руководителем его стал выпускник музыкального училища Валерий Ярушин. Играли на танцах, тщательно копировали. «Битлз», сочиняли сами и...учились. Правда, не только исполнению рок-боевиков, а еще и в институте культуры, на отделении хорового дирижирования. Репутация «челябинских битлов» достаточно прочно закрепилась за группой, но вдруг... «Когда я сказал ребятам, что сделал аранжировки народных песен „Ой, мороз, мороз“ и „Ничто в полюшке не колышется“, меня буквально подняли на смех. Казалось противоестественным — запеть с эстрады песню, которая ассоциировалась разве что только с шумным застольем. — вспоминает Ярушин — Мне даже выразили сожаление, что я не догадался аранжировать „Шумел камыш“... Однако обработки сделали, а успех на фестивале „Серебряные струны-71“ и поддержка публики заставили ребят в корне пересмотреть свое отношение к моим экспериментам».
Качество: DVB
Контейнер: TS
Видео кодек: H.264
Аудио кодек: MP2
Видео: AVC, 720x576 (@1047x576), 16:9, 25.00fps, 2 239 Kbps, 0.216 bit/pixel
Аудио: MPEG Audio 48000Hz stereo 192 Кбит/сек
Общее
Идентификатор : 1 (0x1)
Полное имя : G:\Раздачи\Программы, передачи, шоу, спектакли\По волне моей памяти\По волне моей памяти - 2007\По волне моей памяти. Валерий Ярушин (2007, DVB, Ток-шоу, Интервью, Эфир от 26.09.2017) (by Nokia5150).ts
Формат : MPEG-TS
Размер файла : 971 Мбайт
Продолжительность : 53 м. 1 с.
Режим общего битрейта : Переменный
Общий поток : 2560 Кбит/сек
Видео
Идентификатор : 2607 (0xA2F)
Идентификатор меню : 607 (0x25F)
Формат : AVC
Формат/Информация : Advanced Video Codec
Профиль формата : Main@L3
Параметр CABAC формата : Да
Параметр RefFrames формата : 3 кадра
Идентификатор кодека : 27
Продолжительность : 53 м. 1 с.
Битрейт : 2239 Кбит/сек
Ширина : 720 пикселей
Высота : 576 пикселей
Соотношение сторон : 16:9
Частота кадров : 25,000 кадров/сек
Стандарт вещания : Component
Цветовое пространство : YUV
Субдискретизация насыщенности : 4:2:0
Битовая глубина : 8 бит
Тип развёртки : Чересстрочная
Метод сохранения типа развёртки : Раздельные поля
Порядок развёртки : Верхнее поле первое
Бит/(Пиксели*Кадры) : 0.216
Размер потока : 849 Мбайт (87%)
Цветовой диапазон : Limited
Основные цвета : BT.601 PAL
Характеристики трансфера : BT.470 System B, BT.470 System G
Коэффициенты матрицы : BT.470 System B, BT.470 System G
Аудио
Идентификатор : 3607 (0xE17)
Идентификатор меню : 607 (0x25F)
Формат : MPEG Audio
Версия формата : Version 1
Профиль формата : Layer 2
Идентификатор кодека : 3
Продолжительность : 53 м. 1 с.
Вид битрейта : Постоянный
Битрейт : 192 Кбит/сек
Каналы : 2 канала
Частота : 48,0 КГц
Метод сжатия : С потерями
Размер потока : 72,8 Мбайт (8%)
Язык : English
#77
Гость выпуска:
Все, конечно же, знают песню "Мне нравится" Микаэла Таривердиева на стихи Марины Цветаевой из кинофильма "Ирония судьбы, или с легким паром", и все знают ее в исполнении Аллы Пугачевой.
Но вот в 77-м году на "Песне года" представлял ее дуэт Галины Бесединой и Сергея Тараненко. Эта пара настолько органично выглядела в кадре, что зрители простодушно полагали, что и в жизни они вместе - на самом деле, это было совсем не так. Об этом и о многом другом в программе "По волне моей памяти" расскажет сама Галина Ильинична Беседина.
Качество: DVB
Контейнер: TS
Видео кодек: H.264
Аудио кодек: MP2
Видео: AVC, 720x576 (@1047x576), 16:9, 25.00fps, 2 242 Kbps, 0.216 bit/pixel
Аудио: MPEG Audio 48000Hz stereo 192 Кбит/сек
Общее
Идентификатор : 1 (0x1)
Полное имя : G:\Раздачи\Программы, передачи, шоу, спектакли\По волне моей памяти\По волне моей памяти - 2007\По волне моей памяти. Галина Беседина (2007, DVB, Ток-шоу, Интервью, Эфир от 13.10.2017) (by Nokia5150).ts
Формат : MPEG-TS
Размер файла : 874 Мбайт
Продолжительность : 47 м. 42 с.
Режим общего битрейта : Переменный
Общий поток : 2562 Кбит/сек
Видео
Идентификатор : 2607 (0xA2F)
Идентификатор меню : 607 (0x25F)
Формат : AVC
Формат/Информация : Advanced Video Codec
Профиль формата : Main@L3
Настройки формата : CABAC / 3 Ref Frames
Параметр CABAC формата : Да
Параметр RefFrames формата : 3 кадра
Идентификатор кодека : 27
Продолжительность : 47 м. 42 с.
Битрейт : 2242 Кбит/сек
Ширина : 720 пикселей
Высота : 576 пикселей
Соотношение сторон : 16:9
Частота кадров : 25,000 кадров/сек
Стандарт вещания : Component
Цветовое пространство : YUV
Субдискретизация насыщенности : 4:2:0
Битовая глубина : 8 бит
Тип развёртки : Чересстрочная
Метод сохранения типа развёртки : Раздельные поля
Порядок развёртки : Верхнее поле первое
Бит/(Пиксели*Кадры) : 0.216
Размер потока : 765 Мбайт (87%)
Цветовой диапазон : Limited
Основные цвета : BT.601 PAL
Характеристики трансфера : BT.470 System B, BT.470 System G
Коэффициенты матрицы : BT.470 System B, BT.470 System G
Аудио
Идентификатор : 3607 (0xE17)
Идентификатор меню : 607 (0x25F)
Формат : MPEG Audio
Версия формата : Version 1
Профиль формата : Layer 2
Идентификатор кодека : 3
Продолжительность : 47 м. 42 с.
Вид битрейта : Постоянный
Битрейт : 192 Кбит/сек
Каналы : 2 канала
Частота : 48,0 КГц
Метод сжатия : С потерями
Задержка видео : -80 мс.
Размер потока : 65,5 Мбайт (7%)
Язык : English
#77
Гость выпуска:
Говорят, что музыка, в особенности джаз, могут вылечить от различных болезней. Так это или нет, пытается выяснить ведущий Олег Нестеров у главного джазмена страны Георгия Гараняна.
Вообще, это человек легендарный. Он участвовал в записи музыки к фильмам "Покровские ворота", "Двенадцать стульев", "Ирония судьбы, или с легким паром!" и многим другим. В 2003 году 87-летний Олег Лундстрем на концерте передал ему дирижерскую палочку, и Гаранян стал дирижером Государственного оркестра джазовой музыки.
А через год, в 2004 году, Георгий Арамович отметил свое 70-тилетие. Можно было бы и отдохнуть, но разве у творческих людей бывает пенсия?
Качество: DVB
Контейнер: TS
Видео кодек: H.264
Аудио кодек: MP2
Видео: AVC, 720x576 (@1047x576), 16:9, 25.00fps, 2 245 Kbps, 0.216 bit/pixel
Аудио: MPEG Audio 48000Hz stereo 192 Кбит/сек
Общее
Идентификатор : 1 (0x1)
Полное имя : G:\Раздачи\Программы, передачи, шоу, спектакли\По волне моей памяти\По волне моей памяти - 2007\По волне моей памяти. Георгий Гаранян (2007, DVB, Ток-шоу, Интервью, Эфир от 21.09.2017) (by Nokia5150).ts
Формат : MPEG-TS
Размер файла : 800 Мбайт
Продолжительность : 43 м. 35 с.
Режим общего битрейта : Переменный
Общий поток : 2565 Кбит/сек
Видео
Идентификатор : 2607 (0xA2F)
Идентификатор меню : 607 (0x25F)
Формат : AVC
Формат/Информация : Advanced Video Codec
Профиль формата : Main@L3
Настройки формата : CABAC / 3 Ref Frames
Параметр CABAC формата : Да
Параметр RefFrames формата : 3 кадра
Идентификатор кодека : 27
Продолжительность : 43 м. 35 с.
Битрейт : 2245 Кбит/сек
Ширина : 720 пикселей
Высота : 576 пикселей
Соотношение сторон : 16:9
Частота кадров : 25,000 кадров/сек
Стандарт вещания : Component
Цветовое пространство : YUV
Субдискретизация насыщенности : 4:2:0
Битовая глубина : 8 бит
Тип развёртки : Чересстрочная
Метод сохранения типа развёртки : Раздельные поля
Порядок развёртки : Верхнее поле первое
Бит/(Пиксели*Кадры) : 0.216
Размер потока : 700 Мбайт (87%)
Цветовой диапазон : Limited
Основные цвета : BT.601 PAL
Характеристики трансфера : BT.470 System B, BT.470 System G
Коэффициенты матрицы : BT.470 System B, BT.470 System G
Аудио
Идентификатор : 3607 (0xE17)
Идентификатор меню : 607 (0x25F)
Формат : MPEG Audio
Версия формата : Version 1
Профиль формата : Layer 2
Идентификатор кодека : 3
Продолжительность : 43 м. 35 с.
Вид битрейта : Постоянный
Битрейт : 192 Кбит/сек
Каналы : 2 канала
Частота : 48,0 КГц
Метод сжатия : С потерями
Задержка видео : -120 мс.
Размер потока : 59,9 Мбайт (7%)
Язык : English
#77
Гость выпуска:
Гость программы Олега Нестерова Елена Камбурова. Она — не эстрадная певица. И не оперная. И не камерная. И не драматическая актриса, которая поет. Она — и то, и другое, и третье.
Она сама по себе театр. Ее концерт — это драматический спектакль. Только вместо прозы в нем поэзия. Положенная на музыку. Свободное владение голосом в очень широком диапазоне, богатейший набор тембров и интонаций и актерское мастерство — те качества, благодаря которым Камбурова стала незаменима в кино, в «пении за кадром»; ее голос, всегда очень разный и в то же время всегда узнаваемый, не похожий ни на какой другой, звучит более чем в ста кинофильмах и мультфильмах — Камбурова поет за детей и взрослых, за лирических и характерных персонажей, за зверей и сказочных существ. Среди ее работ в кино — «Раба любви», «Дульсинея Тобосская», «Небеса обетованные», «Нас венчали не в церкви», «Приключения Электроника», «Мой нежно любимый детектив» и другие.
Качество: DVB
Контейнер: TS
Видео кодек: H.264
Аудио кодек: MP2
Видео: AVC, 720x576 (@1047x576), 16:9, 25.00fps, 2 240 Kbps, 0.216 bit/pixel
Аудио: MPEG Audio 48000Hz stereo 192 Кбит/сек
Общее
Идентификатор : 1 (0x1)
Полное имя : G:\Раздачи\Программы, передачи, шоу, спектакли\По волне моей памяти\По волне моей памяти. Елена Камбурова (2007, DVB, Ток-шоу, Интервью, Эфир от 16.09.2017) (by Nokia5150).ts
Формат : MPEG-TS
Размер файла : 968 Мбайт
Продолжительность : 52 м. 49 с.
Режим общего битрейта : Переменный
Общий поток : 2561 Кбит/сек
Видео
Идентификатор : 2607 (0xA2F)
Идентификатор меню : 607 (0x25F)
Формат : AVC
Формат/Информация : Advanced Video Codec
Профиль формата : Main@L3
Параметр CABAC формата : Да
Параметр RefFrames формата : 3 кадра
Идентификатор кодека : 27
Продолжительность : 52 м. 49 с.
Битрейт : 2240 Кбит/сек
Ширина : 720 пикселей
Высота : 576 пикселей
Соотношение сторон : 16:9
Частота кадров : 25,000 кадров/сек
Стандарт вещания : Component
Цветовое пространство : YUV
Субдискретизация насыщенности : 4:2:0
Битовая глубина : 8 бит
Тип развёртки : Чересстрочная
Метод сохранения типа развёртки : Раздельные поля
Порядок развёртки : Верхнее поле первое
Бит/(Пиксели*Кадры) : 0.216
Размер потока : 846 Мбайт (87%)
Цветовой диапазон : Limited
Основные цвета : BT.601 PAL
Характеристики трансфера : BT.470 System B, BT.470 System G
Коэффициенты матрицы : BT.470 System B, BT.470 System G
Аудио
Идентификатор : 3607 (0xE17)
Идентификатор меню : 607 (0x25F)
Формат : MPEG Audio
Версия формата : Version 1
Профиль формата : Layer 2
Идентификатор кодека : 3
Продолжительность : 52 м. 49 с.
Вид битрейта : Постоянный
Битрейт : 192 Кбит/сек
Каналы : 2 канала
Частота : 48,0 КГц
Метод сжатия : С потерями
Задержка видео : -40 мс.
Размер потока : 72,5 Мбайт (7%)
Язык : English
#77
Гость выпуска:
В гостях у Олега Нестерова - Илона Броневицкая.
Талантливая певица, актриса, ведущая, мама двух даровитых детей, хорошая жена и хозяйка. Это все про нее. Своего счастья она добивалась сама, ведь ее знаменитая мама Эдита Пьеха воспитывала дочь по западному принципу: всегда будь самостоятельной и сама решай все свои проблемы.
Качество: DVB
Контейнер: TS
Видео кодек: H.264
Аудио кодек: MP2
Видео: AVC, 720x576 (@1047x576), 16:9, 25.00fps, 2 241 Kbps, 0.216 bit/pixel
Аудио: MPEG Audio 48000Hz stereo 192 Кбит/сек
Общее
Идентификатор : 1 (0x1)
Полное имя : G:\Раздачи\Программы, передачи, шоу, спектакли\По волне моей памяти\По волне моей памяти. Илона Броневицкая (2007, DVB, Ток-шоу, Интервью, Эфир от 21.09.2017) (by Nokia5150).ts
Формат : MPEG-TS
Размер файла : 774 Мбайт
Продолжительность : 42 м. 14 с.
Режим общего битрейта : Переменный
Общий поток : 2561 Кбит/сек
Видео
Идентификатор : 2607 (0xA2F)
Идентификатор меню : 607 (0x25F)
Формат : AVC
Формат/Информация : Advanced Video Codec
Профиль формата : Main@L3
Параметр CABAC формата : Да
Параметр RefFrames формата : 3 кадра
Идентификатор кодека : 27
Продолжительность : 42 м. 14 с.
Битрейт : 2241 Кбит/сек
Ширина : 720 пикселей
Высота : 576 пикселей
Соотношение сторон : 16:9
Частота кадров : 25,000 кадров/сек
Стандарт вещания : Component
Цветовое пространство : YUV
Субдискретизация насыщенности : 4:2:0
Битовая глубина : 8 бит
Тип развёртки : Чересстрочная
Метод сохранения типа развёртки : Раздельные поля
Порядок развёртки : Верхнее поле первое
Бит/(Пиксели*Кадры) : 0.216
Размер потока : 677 Мбайт (87%)
Цветовой диапазон : Limited
Основные цвета : BT.601 PAL
Характеристики трансфера : BT.470 System B, BT.470 System G
Коэффициенты матрицы : BT.470 System B, BT.470 System G
Аудио
Идентификатор : 3607 (0xE17)
Идентификатор меню : 607 (0x25F)
Формат : MPEG Audio
Версия формата : Version 1
Профиль формата : Layer 2
Идентификатор кодека : 3
Продолжительность : 42 м. 14 с.
Вид битрейта : Постоянный
Битрейт : 192 Кбит/сек
Каналы : 2 канала
Частота : 48,0 КГц
Метод сжатия : С потерями
Задержка видео : -80 мс.
Размер потока : 58,0 Мбайт (7%)
Язык : English
#77
Гость выпуска:
В гостях у Олега Нестерова — легенда отечественной эстрады Иосиф Давыдович Кобзон.
Когда-то он приехал покорять Москву с фанерным ящичком, в котором были нехитрые пожитки и три килограмма провизии. А уже через несколько лет без Кобзона не обходился ни один серьезный концерт или «Голубой огонек». Он выступал перед Сталиным, Хрущевым, Брежневым и т. д. Он всегда старался быть первым — на стройках Сибири, на целине, первым полетел на остров Даманский, когда там случился конфликт с Китаем, и погибло много наших ребят; первым был в Чернобыле, в Афганистане. Он никогда не скрывал свое еврейство, и всегда подчеркивал, что родился на Украине. Несмотря на пресловутый 5-ый пункт он был признан чиновниками и партийным руководством страны. Нет практически ни одного звания, ни одного знака отличия, которых бы ни получил Иосиф Давыдович. И когда в 2002 году случилась трагедия на Дубровке — террористы взяли в заложники зрителей и участников мюзикла «Норд-ост» — Кобзон снова оказался первым и отправился на переговоры к боевикам. Тогда ему удалось вывести за собой трое самых маленьких детей и их маму. Об этом и многом другом в студии телеканала «Время».
Качество: DVB
Контейнер: TS
Видео кодек: H.264
Аудио кодек: MP2
Видео: AVC, 720x576 (@1047x576), 16:9, 25.00fps, 2 241 Kbps, 0.216 bit/pixel
Аудио: MPEG Audio 48000Hz stereo 192 Кбит/сек
Общее
Идентификатор : 1 (0x1)
Полное имя : G:\Раздачи\Программы, передачи, шоу, спектакли\По волне моей памяти\По волне моей памяти. Иосиф Кобзон (2007, DVB, Ток-шоу, Интервью, Эфир от 11.09.2017) (by Nokia5150).ts
Формат : MPEG-TS
Размер файла : 976 Мбайт
Продолжительность : 53 м. 15 с.
Режим общего битрейта : Переменный
Общий поток : 2562 Кбит/сек
Видео
Идентификатор : 2607 (0xA2F)
Идентификатор меню : 607 (0x25F)
Формат : AVC
Формат/Информация : Advanced Video Codec
Профиль формата : Main@L3
Параметр CABAC формата : Да
Параметр RefFrames формата : 3 кадра
Идентификатор кодека : 27
Продолжительность : 53 м. 15 с.
Битрейт : 2241 Кбит/сек
Ширина : 720 пикселей
Высота : 576 пикселей
Соотношение сторон : 16:9
Частота кадров : 25,000 кадров/сек
Стандарт вещания : Component
Цветовое пространство : YUV
Субдискретизация насыщенности : 4:2:0
Битовая глубина : 8 бит
Тип развёртки : Чересстрочная
Метод сохранения типа развёртки : Раздельные поля
Порядок развёртки : Верхнее поле первое
Бит/(Пиксели*Кадры) : 0.216
Размер потока : 854 Мбайт (87%)
Цветовой диапазон : Limited
Основные цвета : BT.601 PAL
Характеристики трансфера : BT.470 System B, BT.470 System G
Коэффициенты матрицы : BT.470 System B, BT.470 System G
Аудио
Идентификатор : 3607 (0xE17)
Идентификатор меню : 607 (0x25F)
Формат : MPEG Audio
Версия формата : Version 1
Профиль формата : Layer 2
Идентификатор кодека : 3
Продолжительность : 53 м. 15 с.
Вид битрейта : Постоянный
Битрейт : 192 Кбит/сек
Каналы : 2 канала
Частота : 48,0 КГц
Метод сжатия : С потерями
Задержка видео : -80 мс.
Размер потока : 73,1 Мбайт (7%)
Язык : English
#77
Гость выпуска:
В гостях у ведущего Олега Нестерова — мушкетер всех времен и народов Михаил Боярский.
В жизни этого актера и певца — множество хороших фильмов и замечательных песен («Соломенная шляпка» (1974), "Старший сын«(1976), «Собака на сене» (1977)). Но, конечно, главными были и остаются — «Д’Артаньян и три мушкетера» и «Песня мушкетеров». Про «мушкетерские» выходки на съемках этой картины ходят просто легенды. Рассказывают, что режиссера Юнгвальда-Хилькевича эта четверка довела просто до предынфарктного состояния — ему приходилось вытаскивать своих подопечных из милиции, больницы, каких-то воровских компаний, а однажды даже из холодильника- рефрижератора. Об этом и о многом другом расскажет сам Михаил Сергеевич, а еще вы услышите его лучшие хиты — «Зеленоглазое такси», «Все пройдет», «Ах, это вечер», «Дрессировщик», ну, и, разумеется, «Песню мушкетеров» и «Констанцию».
Качество: DVB
Контейнер: TS
Видео кодек: H.264
Аудио кодек: MP2
Видео: AVC, 720x576 (@1047x576), 16:9, 25.00fps, 2 241 Kbps, 0.216 bit/pixel
Аудио: MPEG Audio 48000Hz stereo 192 Кбит/сек
Общее
Идентификатор : 1 (0x1)
Полное имя : G:\Раздачи\Программы, передачи, шоу, спектакли\По волне моей памяти\По волне моей памяти - 2007\По волне моей памяти. Михаил Боярский (2007, DVB, Ток-шоу, Интервью, Эфир от 23.09.2017) (by Nokia5150).ts
Формат : MPEG-TS
Размер файла : 873 Мбайт
Продолжительность : 47 м. 39 с.
Режим общего битрейта : Переменный
Общий поток : 2561 Кбит/сек
Видео
Идентификатор : 2607 (0xA2F)
Идентификатор меню : 607 (0x25F)
Формат : AVC
Формат/Информация : Advanced Video Codec
Профиль формата : Main@L3
Параметр CABAC формата : Да
Параметр RefFrames формата : 3 кадра
Идентификатор кодека : 27
Продолжительность : 47 м. 39 с.
Битрейт : 2241 Кбит/сек
Ширина : 720 пикселей
Высота : 576 пикселей
Соотношение сторон : 16:9
Частота кадров : 25,000 кадров/сек
Стандарт вещания : Component
Цветовое пространство : YUV
Субдискретизация насыщенности : 4:2:0
Битовая глубина : 8 бит
Тип развёртки : Чересстрочная
Метод сохранения типа развёртки : Раздельные поля
Порядок развёртки : Верхнее поле первое
Бит/(Пиксели*Кадры) : 0.216
Размер потока : 764 Мбайт (87%)
Цветовой диапазон : Limited
Основные цвета : BT.601 PAL
Характеристики трансфера : BT.470 System B, BT.470 System G
Коэффициенты матрицы : BT.470 System B, BT.470 System G
Аудио
Идентификатор : 3607 (0xE17)
Идентификатор меню : 607 (0x25F)
Формат : MPEG Audio
Версия формата : Version 1
Профиль формата : Layer 2
Идентификатор кодека : 3
Продолжительность : 47 м. 39 с.
Вид битрейта : Постоянный
Битрейт : 192 Кбит/сек
Каналы : 2 канала
Частота : 48,0 КГц
Метод сжатия : С потерями
Размер потока : 65,4 Мбайт (7%)
Язык : English
#77
Гость выпуска:
В гостях у Олега Нестерова легендарный композитор, человек-эпоха, автор множества хитов, ставших уже классикой - Оскар Борисович Фельцман.
До начала 60-х годов он считал эстрадные песни делом несерьёзным, старался вообще их не писать. Его приоритеты - серьёзная академическая музыка и оперетта. Л. Утесов, спев знаменитый шлягер Фельцмана "Теплоход", всё расставил на свои места.
Качество: DVB
Контейнер: TS
Видео кодек: H.264
Аудио кодек: MP2
Видео: AVC, 720x576 (@1047x576), 16:9, 25.00fps, 2 013 Kbps, 0.194 bit/pixel
Аудио: MPEG Audio 48000Hz stereo 192 Кбит/сек
Общее
Идентификатор : 1 (0x1)
Полное имя : G:\Раздачи\Программы, передачи, шоу, спектакли\По волне моей памяти\По волне моей памяти - 2007\По волне моей памяти. Оскар Фельцман (2007, DVB, Ток-шоу, Интервью, Эфир от 28.01.2018) (by Nokia5150).ts
Формат : MPEG-TS
Размер файла : 885 Мбайт
Продолжительность : 53 м. 16 с.
Режим общего битрейта : Переменный
Общий поток : 2322 Кбит/сек
Видео
Идентификатор : 2607 (0xA2F)
Идентификатор меню : 607 (0x25F)
Формат : AVC
Формат/Информация : Advanced Video Codec
Профиль формата : Main@L3
Настройки формата : CABAC / 3 Ref Frames
Параметр CABAC формата : Да
Параметр RefFrames формата : 3 кадра
Идентификатор кодека : 27
Продолжительность : 53 м. 16 с.
Битрейт : 2013 Кбит/сек
Ширина : 720 пикселей
Высота : 576 пикселей
Соотношение сторон : 16:9
Частота кадров : 25,000 кадров/сек
Стандарт вещания : Component
Цветовое пространство : YUV
Субдискретизация насыщенности : 4:2:0
Битовая глубина : 8 бит
Тип развёртки : Чересстрочная
Метод сохранения типа развёртки : Раздельные поля
Порядок развёртки : Верхнее поле первое
Бит/(Пиксели*Кадры) : 0.194
Размер потока : 767 Мбайт (87%)
Цветовой диапазон : Limited
Основные цвета : BT.601 PAL
Характеристики трансфера : BT.470 System B, BT.470 System G
Коэффициенты матрицы : BT.470 System B, BT.470 System G
Аудио
Идентификатор : 3607 (0xE17)
Идентификатор меню : 607 (0x25F)
Формат : MPEG Audio
Версия формата : Version 1
Профиль формата : Layer 2
Идентификатор кодека : 3
Продолжительность : 53 м. 16 с.
Вид битрейта : Постоянный
Битрейт : 192 Кбит/сек
Каналы : 2 канала
Частота : 48,0 КГц
Метод сжатия : С потерями
Размер потока : 73,2 Мбайт (8%)
Язык : German
#77
Гость выпуска:
«Нет у меня никакой биографии, — сказала однажды назойливому журналисту наша сегодняшняя гостья Олега Нестерова Татьяна Шмыга. — Родилась, училась, теперь работаю».
И, подумав, добавила: «В ролях вся моя биография…». Редко в театральном мире встречается человек столь скромный, придающий так мало значения всему, что не относится напрямую к искусству. В её ролях не только биография самой актрисы — в них почти полувековая биография советской и российской оперетты. Оперетта — сказочная страна, и у этой страны есть королева. И имя ей — Татьяна Шмыга — сегодня в гостях у Олега Нестерова.
Качество: DVB
Контейнер: TS
Видео кодек: H.264
Аудио кодек: MP2
Видео: AVC, 720x576 (@1047x576), 16:9, 25.00fps, 2 245 Kbps, 0.217 bit/pixel
Аудио: MPEG Audio 48000Hz stereo 192 Кбит/сек
Общее
Идентификатор : 1 (0x1)
Полное имя : G:\Раздачи\Программы, передачи, шоу, спектакли\По волне моей памяти\По волне моей памяти - 2007\По волне моей памяти. Татьяна Шмыга (2007, DVB, Ток-шоу, Интервью, Эфир от 25.09.2017) (by Nokia5150).ts
Формат : MPEG-TS
Размер файла : 858 Мбайт
Продолжительность : 46 м. 44 с.
Режим общего битрейта : Переменный
Общий поток : 2566 Кбит/сек
Видео
Идентификатор : 2607 (0xA2F)
Идентификатор меню : 607 (0x25F)
Формат : AVC
Формат/Информация : Advanced Video Codec
Профиль формата : Main@L3
Параметр CABAC формата : Да
Параметр RefFrames формата : 3 кадра
Идентификатор кодека : 27
Продолжительность : 46 м. 44 с.
Битрейт : 2245 Кбит/сек
Ширина : 720 пикселей
Высота : 576 пикселей
Соотношение сторон : 16:9
Частота кадров : 25,000 кадров/сек
Стандарт вещания : Component
Цветовое пространство : YUV
Субдискретизация насыщенности : 4:2:0
Битовая глубина : 8 бит
Тип развёртки : Чересстрочная
Метод сохранения типа развёртки : Раздельные поля
Порядок развёртки : Верхнее поле первое
Бит/(Пиксели*Кадры) : 0.217
Размер потока : 751 Мбайт (87%)
Цветовой диапазон : Limited
Основные цвета : BT.601 PAL
Характеристики трансфера : BT.470 System B, BT.470 System G
Коэффициенты матрицы : BT.470 System B, BT.470 System G
Аудио
Идентификатор : 3607 (0xE17)
Идентификатор меню : 607 (0x25F)
Формат : MPEG Audio
Версия формата : Version 1
Профиль формата : Layer 2
Идентификатор кодека : 3
Продолжительность : 46 м. 44 с.
Вид битрейта : Постоянный
Битрейт : 192 Кбит/сек
Каналы : 2 канала
Частота : 48,0 КГц
Метод сжатия : С потерями
Размер потока : 64,2 Мбайт (7%)
Язык : English
Внимание! Раздача ведётся путём добавления новых выпусков; при каждом добавлении создаётся новый торрент. Чтобы начать докачку нового выпуска, пользователям необходимо сделать следующее:
(1) остановить скачивание,
(2) удалить старый торрент у себя из клиента (старые выпуски удалять не надо),
(3) скачать новый торрент и запустить его у себя в клиенте вместо старого, при этом указать клиенту путь в старую папку куда и должно происходить скачивание новых выпусков.

Ваш клиент при этом должен произвести хеширование (проверку) старой папки (если не производит сам - помогите ему сделать это), и будет докачивать только те выпуски которых у вас ещё нет. Старые выпуски при этом не удаляются, а продолжают раздаваться!
Eсли вы уже удалили старые выпуски, то предотвратить повторную закачку старых выпусков можно, отжав галочку в соответсвующих местах при запуске нового торрента. По возможности, желательно не удалять старые выпуски как можно дольше чтобы релизёр не столько продолжал раздавать старые выпуски, а смог сконцентрироваться на новых.

 
Не забывайте говорить Спасибо. Не уходите с раздачи!   
Торрент: Зарегистрирован [30 янв 2018, 01:12] Скачать торрент
Скачать торрент
[ Размер 28.75 КБ / Просмотров 12 ]
Статус:
Проверен
 
.torrent скачан: 0 раз
Хэш: ee4f4d7a5313e7df142b49472e27d6cb764ec25d
Размер: 10.42 ГБ (11 191 629 660 байт)
Стать Автором раздачи
 
 
Раздал: 0 байт
Скачал: 0 байт
Ратио: Inf.
Сообщения: 487468
Зарегистрирован: 17 апр 2014, 13:57


  • Похожие торренты
    Ответы
    Просмотры
    Последнее сообщение

Вернуться в Документальные фильмы и телепередачи о музыке (в том числе биографии)

Ресурс не предоставляет электронные версии произведений, а занимается лишь коллекционированием и каталогизацией ссылок, присылаемых и публикуемых на форуме нашими читателями. Если вы являетесь правообладателем какого-либо представленного материала и не желаете чтобы ссылка на него находилась в нашем каталоге, свяжитесь с нами и мы незамедлительно удалим её. Файлы для обмена на трекере предоставлены пользователями сайта, и администрация не несёт ответственности за их содержание. Просьба не заливать файлы, защищенные авторскими правами, а также файлы нелегального содержания!
cron