Соработник Божий (В. Шкурко) [2004, торжество Православия, CAMRip]

 
 Статистика раздачи 
Размер: 504.91 МБ   |  Зарегистрирован: 28 янв 2018, 21:04   |   .torrent скачан: 0 раз
Сидеров: 1  [ 0 байт/сек ]     Личеров: 0  [ 0 байт/сек ]  
  

Соработник Божий (В. Шкурко) [2004, торжество Православия, CAMRip]

Сообщение Nakazhu » 28 янв 2018, 21:04

Соработник Божий

Дата/Год выпуска: 2004
Страна
: Россия
Жанр: торжество Православия
Продолжительность: 00:25:57 + 00:25:08 + 00:26:38 + 00:26:47 + 00:26:33 + 00:26:16
Перевод: Не требуется
Русские субтитры: нет
Оригинальная аудиодорожка: русский
Режиссер: В. Шкурко
Описание: Михаил Михайлович Дунаев — профессор Московской Духовной Академии, доктор богословия, доктор филологических наук, рассуждает о жизненном подвиге выдающегося русского писателя, мемуариста, философа-моралиста, теоретика и практика в области сельского хозяйства Андрея Тимофеевича Болотова.
качество: CAMRip
формат: MP4
Видео: AVC, 478x360 (4:3), 25.000 fps, 372 Kbps (0.086 bit/pixel)
Аудио: AAC LC, 44.1 KHz, 2 ch, 96.0 Kbps, VBR
01. Часть 1
02. Часть 2
03. Часть 3
04. Часть 4
05. Часть 5
06. Часть 6
Код: Выделить всё
General
Complete name                            : C:\Users\User\Downloads\Соработник Божий\01. Часть 1.mp4
Format                                   : MPEG-4
Format profile                           : Base Media / Version 2
Codec ID                                 : mp42
File size                                : 87.3 MiB
Duration                                 : 25mn 57s
Overall bit rate mode                    : Variable
Overall bit rate                         : 470 Kbps
Encoded date                             : UTC 2013-09-06 14:05:11
Tagged date                              : UTC 2013-09-06 14:05:11
Video
ID                                       : 1
Format                                   : AVC
Format/Info                              : Advanced Video Codec
Format profile                           : Baseline@L2.1
Format settings, CABAC                   : No
Format settings, ReFrames                : 1 frame
Codec ID                                 : avc1
Codec ID/Info                            : Advanced Video Coding
Duration                                 : 25mn 57s
Source duration                          : 25mn 57s
Bit rate                                 : 372 Kbps
Maximum bit rate                         : 1 985 Kbps
Width                                    : 478 pixels
Height                                   : 360 pixels
Display aspect ratio                     : 4:3
Frame rate mode                          : Constant
Frame rate                               : 25.000 fps
Color space                              : YUV
Chroma subsampling                       : 4:2:0
Bit depth                                : 8 bits
Scan type                                : Progressive
Bits/(Pixel*Frame)                       : 0.086
Stream size                              : 69.0 MiB (79%)
Source stream size                       : 69.0 MiB (79%)
Tagged date                              : UTC 2013-09-06 14:05:47
Audio
ID                                       : 2
Format                                   : AAC
Format/Info                              : Advanced Audio Codec
Format profile                           : LC
Codec ID                                 : 40
Duration                                 : 25mn 57s
Bit rate mode                            : Variable
Bit rate                                 : 96.0 Kbps
Maximum bit rate                         : 102 Kbps
Channel(s)                               : 2 channels
Channel positions                        : Front: L R
Sampling rate                            : 44.1 KHz
Compression mode                         : Lossy
Stream size                              : 17.8 MiB (20%)
Title                                    : IsoMedia File Produced by Google, 5-11-2011
Encoded date                             : UTC 2013-09-06 14:05:34
Tagged date                              : UTC 2013-09-06 14:05:47
 
Не забывайте говорить Спасибо. Не уходите с раздачи!   
Торрент: Зарегистрирован [28 янв 2018, 21:04] Скачать торрент
Скачать торрент
[ Размер 20.46 КБ / Просмотров 8 ]
Статус:
Проверен
 
.torrent скачан: 0 раз
Хэш: 19dc17e70d129ed14f97f1ea16fb353116b778e5
Размер: 504.91 МБ (529 434 366 байт)
Стать Автором раздачи
 
 
Раздал: 0 байт
Скачал: 0 байт
Ратио: Inf.
Сообщения: 487468
Зарегистрирован: 17 апр 2014, 13:57


  • Похожие торренты
    Ответы
    Просмотры
    Последнее сообщение

Вернуться в Вера и религия (видео)

Ресурс не предоставляет электронные версии произведений, а занимается лишь коллекционированием и каталогизацией ссылок, присылаемых и публикуемых на форуме нашими читателями. Если вы являетесь правообладателем какого-либо представленного материала и не желаете чтобы ссылка на него находилась в нашем каталоге, свяжитесь с нами и мы незамедлительно удалим её. Файлы для обмена на трекере предоставлены пользователями сайта, и администрация не несёт ответственности за их содержание. Просьба не заливать файлы, защищенные авторскими правами, а также файлы нелегального содержания!
cron