BBC. Голубая планета 2 / Blue Planet II (2017) BDRemux [H.265/2160p] [4K] (Сезон 2, эпизод 1-7 из 7)

 
 Статистика раздачи 
Размер: 145.94 ГБ   |  Зарегистрирован: 24 янв 2018, 09:54   |   .torrent скачан: 0 раз
Сидеров: 1  [ 0 байт/сек ]     Личеров: 0  [ 0 байт/сек ]  
  

BBC. Голубая планета 2 / Blue Planet II (2017) BDRemux [H.265/2160p] [4K] (Сезон 2, эпизод 1-7 из 7)

Сообщение apple2000 » 24 янв 2018, 09:54

Голубая планета 2 / Blue Planet II (2017) BDRemux [H.265/2160p] [4K] (Сезон 2, эпизод 1-7 из 7)

Производство: Великобритания, BBC Natural History Unit (NHU), BBC Studios
Жанр: Документальный, природа, путешествие, флора, фауна

Режиссер: Дэвид Аттенборо
Участники: Дэвид Аттенборо

Описание:
Несмотря на то, что вода занимает две трети нашей планеты, о глубинах океана мы знаем меньше, чем о поверхности Луны. От известного до непознанного - новый документальный сериал "Голубая планета" открывает нам всю красоту и очарование океана, поражая воображение многообразием его обитателей. Сериал "Голубая планета" - это всестороннее и наиболее полное исследование подводного мира. Использование новейших технологий и уникального оборудования для глубоководных съемок раскроют зрителю самые сокровенные тайны мирового океана и позволят увидеть редчайшие кадры из жизни его обитателей, о существовании которых мы могли ранее только догадываться.

http://www.imdb.com/title/tt6769208/?ref_=plg_rt_1

Релиз от: EPSiLON
Продолжительность: 7 x ~ 00:53:00
Качество видео: BDRemux
Перевод: Дублированный, +любительский многоголосый, +любительский одноголосый
Субтитры: Русские, английские

Видео: HEVC/H.265, 3840x2160, ~43,6-66,0 Mbps
Аудио#1: AC3, 2 ch, 384 Kbps | Русский, дублированный (Николай Дроздов)
Аудио#2: AC3, 2 ch, 192 Kbps | Русский, любительский многоголосый (ColdFilm)
Аудио#3: AC3, 6 ch, 448 Kbps | Русский, любительский одноголосый - 1-2 серии (Jimmy J)
Аудио#4: AC3, 6 ch, 640 Kbps | Украинский, любительский одноголосый - 1-5 серии. (Ю.Онищенко)
Аудио#5: DTS-HD MA, 6 ch, 2 225 Kbps | Английский
Код: Выделить всё
Общее
Уникальный идентификатор                 : 239137304538239033858011815666098718301 (0xB3E82B687B7C7D2AB27A4738BB61465D)
Полное имя                               : F:\КИНО\Blue.Planet.II.2017.2160p.UHD.BluRay.REMUX.HDR.HEVC.DTS-HD.MA.5.1-EPSiLON\Blue.Planet.II.S01E01.Coasts.2160p.UHD.BluRay.REMUX.HDR.HEVC.DTS-HD.MA.5.1-EPSiLON.mkv
Формат                                   : Matroska
Версия формата                           : Version 4 / Version 2
Размер файла                             : 17,0 Гбайт
Продолжительность                        : 51 м. 15 с.
Общий поток                              : 47,5 Мбит/сек
Название фильма                          : Blue.Planet.II.S01E01.Coasts.2160p.UHD.BluRay.REMUX.HDR.HEVC.DTS-HD.MA.5.1-EPSiLON
Дата кодирования                         : UTC 2018-01-21 22:13:38
Программа кодирования                    : mkvmerge v20.0.0 ('I Am The Sun') 64-bit
Библиотека кодирования                   : libebml v1.3.5 + libmatroska v1.4.8

Видео
Идентификатор                            : 1
Формат                                   : HEVC
Формат/Информация                        : High Efficiency Video Coding
Профиль формата                          : Main [url=http://nnm-club.name/mailto:10@L5.1]10@L5.1[/url]@High
Идентификатор кодека                     : V_MPEGH/ISO/HEVC
Продолжительность                        : 51 м. 15 с.
Битрейт                                  : 43,6 Мбит/сек
Ширина                                   : 3840 пикселей
Высота                                   : 2160 пикселей
Соотношение сторон                       : 16:9
Режим частоты кадров                     : Постоянный
Частота кадров                           : 23,976 (24000/1001) кадра/сек
Цветовое пространство                    : YUV
Субдискретизация насыщенности            : 4:2:0 (Type 2)
Битовая глубина                          : 10 бит
Бит/(Пиксели*Кадры)                      : 0.219
Размер потока                            : 15,6 Гбайт (92%)
Заголовок                                : Blue.Planet.II.S01E01.Coasts.2160p.UHD.BluRay.REMUX.HDR.HEVC.DTS-HD.MA.5.1-EPSiLON
Язык                                     : English
Default                                  : Да
Forced                                   : Нет
Цветовой диапазон                        : Limited
Основные цвета                           : BT.2020
Характеристики трансфера                 : PQ
Коэффициенты матрицы                     : BT.2020 non-constant
MasteringDisplay_ColorPrimaries          : Display P3
MasteringDisplay_Luminance               : min: 0.0050 cd/m2, max: 1000 cd/m2
MaxCLL                                   : 1000 cd/m2
MaxFALL                                  : 120 cd/m2

Аудио #1
Идентификатор                            : 2
Формат                                   : AC-3
Формат/Информация                        : Audio Coding 3
Идентификатор кодека                     : A_AC3
Продолжительность                        : 51 м. 15 с.
Вид битрейта                             : Постоянный
Битрейт                                  : 384 Кбит/сек
Каналы                                   : 2 канала
Расположение каналов                     : Front: L R
Частота                                  : 48,0 КГц
Частота кадров                           : 31,250 кадров/сек (1536 SPF)
Битовая глубина                          : 16 бит
Метод сжатия                             : С потерями
Размер потока                            : 141 Мбайт (1%)
Заголовок                                : Дроздов
Язык                                     : Russian
ServiceKind/String                       : Complete Main
Default                                  : Да
Forced                                   : Нет

Аудио #2
Идентификатор                            : 3
Формат                                   : AC-3
Формат/Информация                        : Audio Coding 3
Идентификатор кодека                     : A_AC3
Продолжительность                        : 51 м. 15 с.
Вид битрейта                             : Постоянный
Битрейт                                  : 192 Кбит/сек
Каналы                                   : 2 канала
Расположение каналов                     : Front: L R
Частота                                  : 48,0 КГц
Частота кадров                           : 31,250 кадров/сек (1536 SPF)
Битовая глубина                          : 16 бит
Метод сжатия                             : С потерями
Размер потока                            : 70,4 Мбайт (0%)
Заголовок                                : Coldfilm
Язык                                     : Russian
ServiceKind/String                       : Complete Main
Default                                  : Нет
Forced                                   : Нет

Аудио #3
Идентификатор                            : 4
Формат                                   : AC-3
Формат/Информация                        : Audio Coding 3
Идентификатор кодека                     : A_AC3
Продолжительность                        : 51 м. 15 с.
Вид битрейта                             : Постоянный
Битрейт                                  : 448 Кбит/сек
Каналы                                   : 6 каналов
Расположение каналов                     : Front: L C R, Side: L R, LFE
Частота                                  : 48,0 КГц
Частота кадров                           : 31,250 кадров/сек (1536 SPF)
Битовая глубина                          : 16 бит
Метод сжатия                             : С потерями
Размер потока                            : 164 Мбайт (1%)
Заголовок                                : Jimmy J
Язык                                     : Russian
ServiceKind/String                       : Complete Main
Default                                  : Нет
Forced                                   : Нет

Аудио #4
Идентификатор                            : 5
Формат                                   : AC-3
Формат/Информация                        : Audio Coding 3
Идентификатор кодека                     : A_AC3
Продолжительность                        : 51 м. 15 с.
Вид битрейта                             : Постоянный
Битрейт                                  : 640 Кбит/сек
Каналы                                   : 6 каналов
Расположение каналов                     : Front: L C R, Side: L R, LFE
Частота                                  : 48,0 КГц
Частота кадров                           : 31,250 кадров/сек (1536 SPF)
Битовая глубина                          : 16 бит
Метод сжатия                             : С потерями
Размер потока                            : 235 Мбайт (1%)
Заголовок                                : Юрий Онищенко
Язык                                     : Ukrainian
ServiceKind/String                       : Complete Main
Default                                  : Нет
Forced                                   : Нет

Аудио #5
Идентификатор                            : 6
Формат                                   : DTS
Формат/Информация                        : Digital Theater Systems
Профиль формата                          : MA / Core
Идентификатор кодека                     : A_DTS
Продолжительность                        : 51 м. 15 с.
Вид битрейта                             : Переменный / Постоянный
Битрейт                                  : 2225 Кбит/сек / 1509 Кбит/сек
Каналы                                   : 6 каналов
Расположение каналов                     : Front: L C R, Side: L R, LFE
Частота                                  : 48,0 КГц
Частота кадров                           : 93,750 кадра/сек (512 SPF)
Битовая глубина                          : 16 бит
Метод сжатия                             : Без потерь / Lossy
Размер потока                            : 816 Мбайт (5%)
Заголовок                                : English
Язык                                     : English
Default                                  : Нет
Forced                                   : Нет

Текст #1
Идентификатор                            : 7
Формат                                   : UTF-8
Идентификатор кодека                     : S_TEXT/UTF8
Идентификатор кодека/Информация          : UTF-8 Plain Text
Продолжительность                        : 49 м. 25 с.
Битрейт                                  : 59 бит/сек
ElementCount                             : 304
Размер потока                            : 21,5 Кбайт (0%)
Заголовок                                : Русский
Язык                                     : Russian
Default                                  : Нет
Forced                                   : Нет

Текст #2
Идентификатор                            : 8
Формат                                   : UTF-8
Идентификатор кодека                     : S_TEXT/UTF8
Идентификатор кодека/Информация          : UTF-8 Plain Text
Продолжительность                        : 49 м. 25 с.
Битрейт                                  : 33 бит/сек
ElementCount                             : 304
Размер потока                            : 12,0 Кбайт (0%)
Заголовок                                : English
Язык                                     : English
Default                                  : Да
Forced                                   : Нет
01. Один океан / One Ocean
02. Глубоководье / The Deep
03. Коралловые рифы / Coral Reefs
04. Большой синий / Big Blue
05. Зеленые моря / Green Seas
06. Побережье / Coasts
07. Наша голубая Планета / Our Blue Planet

Скриншоты:



Время раздачи: с 18:00 до 23:00 (до появления первых 3-5 скачавших)
 
Не забывайте говорить Спасибо. Не уходите с раздачи!   
Торрент: Зарегистрирован [24 янв 2018, 09:54] Скачать торрент
Скачать торрент
[ Размер 366.58 КБ / Просмотров 17 ]
Статус:
Проверен
 
.torrent скачан: 0 раз
Хэш: bd6f3a1076d09298cda1398b01b22affb9433d92
Размер: 145.94 ГБ (156 700 585 782 байт)
Стать Автором раздачи
 
 
Раздал: 0 байт
Скачал: 0 байт
Ратио: Inf.
Сообщения: 45193
Зарегистрирован: 05 окт 2014, 15:23


  • Похожие торренты
    Ответы
    Просмотры
    Последнее сообщение

Вернуться в BBC

Ресурс не предоставляет электронные версии произведений, а занимается лишь коллекционированием и каталогизацией ссылок, присылаемых и публикуемых на форуме нашими читателями. Если вы являетесь правообладателем какого-либо представленного материала и не желаете чтобы ссылка на него находилась в нашем каталоге, свяжитесь с нами и мы незамедлительно удалим её. Файлы для обмена на трекере предоставлены пользователями сайта, и администрация не несёт ответственности за их содержание. Просьба не заливать файлы, защищенные авторскими правами, а также файлы нелегального содержания!