Шестерка / Le paltoquet (1986) DVDRip

 
 Статистика раздачи 
Размер: 1.46 ГБ   |  Зарегистрирован: 23 янв 2018, 17:56   |   .torrent скачан: 0 раз
Сидеров: 1  [ 0 байт/сек ]     Личеров: 0  [ 0 байт/сек ]  
  

Шестерка / Le paltoquet (1986) DVDRip

Сообщение apple2000 » 23 янв 2018, 17:56

Шестерка / Le paltoquet (1986) DVDRip

Производство: Франция / Eléfilm, Erato Films, Soprofilms, TF1 Films Production
Жанр: Драма, криминал

Режиссер: Мишель Девиль
Актеры: Жанна Моро, Мишель Пикколи, Ришар Боринже, Фанни Ардан, Филипп Леотар, Даниель Отой, Жан Янн, Клод Пьеплю, Тхюй Ан Лю, Сиди Ламин Дьярра

Описание:
Журналист, торговец, доктор и профессор каждый вечер встречаются в кафе, чтобы выпить и поиграть в бридж. А нехитрый досуг приятелей скрашивает женщина-вамп Лотта. Но однажды в кафе появляется инспектор полиции. В соседней гостинице убит постоялец, и страж закона убежден, что преступник — среди завсегдатаев заведения. Под подозрением все. А спустя несколько дней кто-то стреляет в Лотту, и это далеко не последний «привет» от убийцы…

http://www.imdb.com/title/tt0091715/?ref_=plg_rt_1
Возраст: 16+ (зрителям, достигшим 16 лет)

Продолжительность: 01:30:00
Качество видео: DVDRip
Перевод: Профессиональный многоголосый
Субтитры: Русские (отдельным файлом)

Видео: MPEG4, XviD, 704x304 (2.35:1), 25.000 fps, 1 928 Kbps (0.360 bit/pixel)
Аудио #1: AC-3, 48.0 KHz, 2 ch, 192 Kbps, CBR | Русский
Аудио #2: AC-3, 48.0 KHz, 2 ch, 192 Kbps, CBR | Французский
Код: Выделить всё
Общее
Полное имя                               : E:\NNM\Шестерка\Le Paltoquet 1986 DVDRip\Le Paltoquet 1986 DVDRip.avi
Формат                                   : AVI
Формат/Информация                        : Audio Video Interleave
Размер файла                             : 1,46 Гбайт
Продолжительность                        : 1 ч. 30 м.
Общий поток                              : 2321 Кбит/сек
Программа кодирования                    : VirtualDubMod 1.5.4.1 (build 2178/release)
Библиотека кодирования                   : VirtualDubMod build 2178/release

Видео
Идентификатор                            : 0
Формат                                   : MPEG-4 Visual
Профиль формата                          : Advanced Simple@L5
Настройки формата                        : Custom Matrix
Параметр BVOP формата                    : Нет
Параметр QPel формата                    : Нет
Параметр GMC формата                     : Без точки перехода
Параметр матрицы формата                 : Выборочная
Идентификатор кодека                     : XVID
Идентификатор кодека/Подсказка           : XviD
Продолжительность                        : 1 ч. 30 м.
Битрейт                                  : 1928 Кбит/сек
Ширина                                   : 704 пикселя
Высота                                   : 304 пикселя
Соотношение сторон                       : 2,35:1
Частота кадров                           : 25,000 кадров/сек
Цветовое пространство                    : YUV
Субдискретизация насыщенности            : 4:2:0
Битовая глубина                          : 8 бит
Тип развёртки                            : Прогрессивная
Метод сжатия                             : С потерями
Бит/(Пиксели*Кадры)                      : 0.360
Размер потока                            : 1,21 Гбайт (83%)
Библиотека кодирования                   : XviD 1.2.1 (UTC 2008-12-04)

Аудио #1
Идентификатор                            : 1
Формат                                   : AC-3
Формат/Информация                        : Audio Coding 3
Идентификатор кодека                     : 2000
Продолжительность                        : 1 ч. 29 м.
Вид битрейта                             : Постоянный
Битрейт                                  : 192 Кбит/сек
Каналы                                   : 2 канала
Расположение каналов                     : Front: L R
Частота                                  : 48,0 КГц
Частота кадров                           : 31,250 кадров/сек (1536 SPF)
Битовая глубина                          : 16 бит
Метод сжатия                             : С потерями
Размер потока                            : 124 Мбайт (8%)
Выравнивание                             : Разделение по промежуткам
Продолжительность промежутка             : 96  мс. (2,40 видеокадра)
Время предзагрузки промежутка            : 96  мс.
ServiceKind/String                       : Complete Main

Аудио #2
Идентификатор                            : 2
Формат                                   : AC-3
Формат/Информация                        : Audio Coding 3
Идентификатор кодека                     : 2000
Продолжительность                        : 1 ч. 29 м.
Вид битрейта                             : Постоянный
Битрейт                                  : 192 Кбит/сек
Каналы                                   : 2 канала
Расположение каналов                     : Front: L R
Частота                                  : 48,0 КГц
Частота кадров                           : 31,250 кадров/сек (1536 SPF)
Битовая глубина                          : 16 бит
Метод сжатия                             : С потерями
Размер потока                            : 124 Мбайт (8%)
Выравнивание                             : Разделение по промежуткам
Продолжительность промежутка             : 96  мс. (2,40 видеокадра)
Время предзагрузки промежутка            : 96  мс.
ServiceKind/String                       : Complete Main

Скриншоты:

Время раздачи: Круглосуточно до 10 скачавших
 
Не забывайте говорить Спасибо. Не уходите с раздачи!   
Торрент: Зарегистрирован [23 янв 2018, 17:56] Скачать торрент
Скачать торрент
[ Размер 15.46 КБ / Просмотров 17 ]
Статус:
Проверен
 
.torrent скачан: 0 раз
Хэш: 2418324dfb205fb5ac39d6a2348c05f9384c78f2
Размер: 1.46 ГБ (1 566 627 764 байт)
Стать Автором раздачи
 
 
Раздал: 0 байт
Скачал: 0 байт
Ратио: Inf.
Сообщения: 45161
Зарегистрирован: 05 окт 2014, 15:23


  • Похожие торренты
    Ответы
    Просмотры
    Последнее сообщение

Вернуться в Авторское кино

Ресурс не предоставляет электронные версии произведений, а занимается лишь коллекционированием и каталогизацией ссылок, присылаемых и публикуемых на форуме нашими читателями. Если вы являетесь правообладателем какого-либо представленного материала и не желаете чтобы ссылка на него находилась в нашем каталоге, свяжитесь с нами и мы незамедлительно удалим её. Файлы для обмена на трекере предоставлены пользователями сайта, и администрация не несёт ответственности за их содержание. Просьба не заливать файлы, защищенные авторскими правами, а также файлы нелегального содержания!