Phon.O - Collection 14 Releases (2005-2018) 50Weapons, Shitkatapult, BPitch Control [FLAC|Lossless|tracks+.cue, tracks] <Techno, Dubstep, UK Garage, Dub Techno, House, Abstract, Minimal>

 
 Статистика раздачи 
Размер: 1.55 ГБ   |  Зарегистрирован: 22 янв 2018, 19:48   |   .torrent скачан: 0 раз
Сидеров: 1  [ 0 байт/сек ]     Личеров: 0  [ 0 байт/сек ]  
  

Phon.O - Collection 14 Releases (2005-2018) 50Weapons, Shitkatapult, BPitch Control [FLAC|Lossless|tracks+.cue, tracks] <Techno, Dubstep, UK Garage, Dub Techno, House, Abstract, Minimal>

Сообщение apple2000 » 22 янв 2018, 19:48



Жанр
: Techno, Dubstep, UK Garage, Dub Techno, House, Abstract, Minimal, Ambient • Год издания: 2005-2016 • Страна: Germany
Аудиокодек: FLAC • Тип рипа: tracks+.cue, tracks • Битрейт аудио: Lossless • Продолжительность: 04:24:40 • Источник: What, beatport
Треклист:
Год выпуска: 2005
Продолжительность: 00:42:28
Треклист:

01. Verborg Nie Die 6 (00:32)
02. Ridin' Dirty (04:32)
03. Kyoto Station 6 Pm (03:34)
04. 313 Dumpsta Railin' (04:03)
05. Trick Or Treat (04:31)
06. Aufschwung Ost (04:35)
07. Melodia Per Un Passerino (03:54)
08. Burn Both Of Us (03:24)
09. Busted In Da D (03:59)
10. En Duo Avec George W. (03:25)
11. Bluehende Landschaften (04:23)
12. Warten Auf Die 6 (01:36)
Код: Выделить всё
X Lossless Decoder version 20100711 (120.5)

XLD extraction logfile from 2010-08-13 12:58:50 -0400

Phon.o / Burn Down The Town

Used drive : MATSHITA DVD-R   UJ-846 (revision FB2U)

Use cdparanoia mode     : YES (CDParanoia III 10.2 engine)
Disable audio cache     : OK for the drive with cache less than 2750KB
Make use of C2 pointers : NO
Read offset correction  : 102
Max retry count         : 100
Gap status              : Analyzed, Appended

TOC of the extracted CD
     Track |   Start  |  Length  | Start sector | End sector
    ---------------------------------------------------------
        1  | 00:00:00 | 00:32:01 |         0    |     2400
        2  | 00:32:01 | 04:31:70 |      2401    |    22795
        3  | 05:03:71 | 03:34:18 |     22796    |    38863
        4  | 08:38:14 | 04:03:19 |     38864    |    57107
        5  | 12:41:33 | 04:30:39 |     57108    |    77396
        6  | 17:11:72 | 04:35:24 |     77397    |    98045
        7  | 21:47:21 | 03:54:14 |     98046    |   115609
        8  | 25:41:35 | 03:23:64 |    115610    |   130898
        9  | 29:05:24 | 03:59:12 |    130899    |   148835
       10  | 33:04:36 | 03:25:36 |    148836    |   164246
       11  | 36:29:72 | 04:23:21 |    164247    |   183992
       12  | 40:53:18 | 01:35:61 |    183993    |   191178
       13  | 45:01:04 | 24:11:53 |    202579    |   311456

Track 01
    Filename : /Users/wesleyfrew/Desktop/Phon.O - Burn Down The Town (2005) - FLAC/01 Phon.o - Verborg Nie Die 6.flac

    Pre-gap length : 00:02:00

    CRC32 hash (test run)  : 898CE127
    CRC32 hash             : 898CE127
    CRC32 hash (skip zero) : 03F68069
    AccurateRip signature  : 9E55C776
        ->Track not present in AccurateRip database.
    Statistics
        Read error                           : 0
        Skipped (treated as error)           : 0
        Edge jitter error (maybe fixed)      : 0
        Atom jitter error (maybe fixed)      : 0
        Drift error (maybe fixed)            : 0
        Dropped bytes error (maybe fixed)    : 0
        Duplicated bytes error (maybe fixed) : 0
        Inconsistency in error sectors       : 0

Track 02
    Filename : /Users/wesleyfrew/Desktop/Phon.O - Burn Down The Town (2005) - FLAC/02 Phon.o - RidinŽ Dirty.flac

    Pre-gap length : 00:02:00

    CRC32 hash (test run)  : 965C6EEC
    CRC32 hash             : 965C6EEC
    CRC32 hash (skip zero) : 709D1EF5
    AccurateRip signature  : 7D1DF006
        ->Track not present in AccurateRip database.
    Statistics
        Read error                           : 0
        Skipped (treated as error)           : 0
        Edge jitter error (maybe fixed)      : 0
        Atom jitter error (maybe fixed)      : 0
        Drift error (maybe fixed)            : 0
        Dropped bytes error (maybe fixed)    : 0
        Duplicated bytes error (maybe fixed) : 0
        Inconsistency in error sectors       : 0

Track 03
    Filename : /Users/wesleyfrew/Desktop/Phon.O - Burn Down The Town (2005) - FLAC/03 Phon.o - Kyoto Station 6 Pm.flac

    Pre-gap length : 00:02:00

    CRC32 hash (test run)  : C91B18B2
    CRC32 hash             : C91B18B2
    CRC32 hash (skip zero) : 80070EA2
    AccurateRip signature  : 4B50EEAA
        ->Track not present in AccurateRip database.
    Statistics
        Read error                           : 0
        Skipped (treated as error)           : 0
        Edge jitter error (maybe fixed)      : 0
        Atom jitter error (maybe fixed)      : 0
        Drift error (maybe fixed)            : 0
        Dropped bytes error (maybe fixed)    : 0
        Duplicated bytes error (maybe fixed) : 0
        Inconsistency in error sectors       : 0

Track 04
    Filename : /Users/wesleyfrew/Desktop/Phon.O - Burn Down The Town (2005) - FLAC/04 Phon.o - 313 Dumpsta Railin'.flac

    Pre-gap length : 00:02:00

    CRC32 hash (test run)  : D6768A3E
    CRC32 hash             : D6768A3E
    CRC32 hash (skip zero) : 9513BEE6
    AccurateRip signature  : 3F68C177
        ->Track not present in AccurateRip database.
    Statistics
        Read error                           : 0
        Skipped (treated as error)           : 0
        Edge jitter error (maybe fixed)      : 0
        Atom jitter error (maybe fixed)      : 0
        Drift error (maybe fixed)            : 0
        Dropped bytes error (maybe fixed)    : 0
        Duplicated bytes error (maybe fixed) : 0
        Inconsistency in error sectors       : 0

Track 05
    Filename : /Users/wesleyfrew/Desktop/Phon.O - Burn Down The Town (2005) - FLAC/05 Phon.o - Trick Or Treat.flac

    Pre-gap length : 00:02:00

    CRC32 hash (test run)  : 4A673A55
    CRC32 hash             : 4A673A55
    CRC32 hash (skip zero) : 791D96F5
    AccurateRip signature  : 96E60593
        ->Track not present in AccurateRip database.
    Statistics
        Read error                           : 0
        Skipped (treated as error)           : 0
        Edge jitter error (maybe fixed)      : 0
        Atom jitter error (maybe fixed)      : 0
        Drift error (maybe fixed)            : 0
        Dropped bytes error (maybe fixed)    : 0
        Duplicated bytes error (maybe fixed) : 0
        Inconsistency in error sectors       : 0

Track 06
    Filename : /Users/wesleyfrew/Desktop/Phon.O - Burn Down The Town (2005) - FLAC/06 Phon.o - Aufschwung Ost.flac

    Pre-gap length : 00:02:00

    CRC32 hash (test run)  : EF419059
    CRC32 hash             : EF419059
    CRC32 hash (skip zero) : CA3618E4
    AccurateRip signature  : 7BB4A772
        ->Track not present in AccurateRip database.
    Statistics
        Read error                           : 0
        Skipped (treated as error)           : 0
        Edge jitter error (maybe fixed)      : 0
        Atom jitter error (maybe fixed)      : 0
        Drift error (maybe fixed)            : 0
        Dropped bytes error (maybe fixed)    : 0
        Duplicated bytes error (maybe fixed) : 0
        Inconsistency in error sectors       : 0

Track 07
    Filename : /Users/wesleyfrew/Desktop/Phon.O - Burn Down The Town (2005) - FLAC/07 Phon.o - Melodia Per Un Passarino.flac

    Pre-gap length : 00:02:00

    CRC32 hash (test run)  : BB3858A8
    CRC32 hash             : BB3858A8
    CRC32 hash (skip zero) : 9C3A1F58
    AccurateRip signature  : A0762C60
        ->Track not present in AccurateRip database.
    Statistics
        Read error                           : 0
        Skipped (treated as error)           : 0
        Edge jitter error (maybe fixed)      : 0
        Atom jitter error (maybe fixed)      : 0
        Drift error (maybe fixed)            : 0
        Dropped bytes error (maybe fixed)    : 0
        Duplicated bytes error (maybe fixed) : 0
        Inconsistency in error sectors       : 0

Track 08
    Filename : /Users/wesleyfrew/Desktop/Phon.O - Burn Down The Town (2005) - FLAC/08 Phon.o - Burn Both Of Us.flac

    Pre-gap length : 00:02:00

    CRC32 hash (test run)  : 55CE7CD4
    CRC32 hash             : 55CE7CD4
    CRC32 hash (skip zero) : B819DFC2
    AccurateRip signature  : 662241BB
        ->Track not present in AccurateRip database.
    Statistics
        Read error                           : 0
        Skipped (treated as error)           : 0
        Edge jitter error (maybe fixed)      : 0
        Atom jitter error (maybe fixed)      : 0
        Drift error (maybe fixed)            : 0
        Dropped bytes error (maybe fixed)    : 0
        Duplicated bytes error (maybe fixed) : 0
        Inconsistency in error sectors       : 0

Track 09
    Filename : /Users/wesleyfrew/Desktop/Phon.O - Burn Down The Town (2005) - FLAC/09 Phon.o - Busted In Da D.flac

    Pre-gap length : 00:02:00

    CRC32 hash (test run)  : E27FD24E
    CRC32 hash             : E27FD24E
    CRC32 hash (skip zero) : 588FBF4C
    AccurateRip signature  : 1F142DD1
        ->Track not present in AccurateRip database.
    Statistics
        Read error                           : 0
        Skipped (treated as error)           : 0
        Edge jitter error (maybe fixed)      : 0
        Atom jitter error (maybe fixed)      : 0
        Drift error (maybe fixed)            : 0
        Dropped bytes error (maybe fixed)    : 0
        Duplicated bytes error (maybe fixed) : 0
        Inconsistency in error sectors       : 0

Track 10
    Filename : /Users/wesleyfrew/Desktop/Phon.O - Burn Down The Town (2005) - FLAC/10 Phon.o - En Duo Avec George W..flac

    Pre-gap length : 00:02:00

    CRC32 hash (test run)  : 59DBB20C
    CRC32 hash             : 59DBB20C
    CRC32 hash (skip zero) : 5C2125BE
    AccurateRip signature  : 2D154EBF
        ->Track not present in AccurateRip database.
    Statistics
        Read error                           : 0
        Skipped (treated as error)           : 0
        Edge jitter error (maybe fixed)      : 0
        Atom jitter error (maybe fixed)      : 0
        Drift error (maybe fixed)            : 0
        Dropped bytes error (maybe fixed)    : 0
        Duplicated bytes error (maybe fixed) : 0
        Inconsistency in error sectors       : 0

Track 11
    Filename : /Users/wesleyfrew/Desktop/Phon.O - Burn Down The Town (2005) - FLAC/11 Phon.o - Bluehende Landschaften.flac

    Pre-gap length : 00:02:00

    CRC32 hash (test run)  : 5F62A64B
    CRC32 hash             : 5F62A64B
    CRC32 hash (skip zero) : C64A64A3
    AccurateRip signature  : 0A0FBF6D
        ->Track not present in AccurateRip database.
    Statistics
        Read error                           : 0
        Skipped (treated as error)           : 0
        Edge jitter error (maybe fixed)      : 0
        Atom jitter error (maybe fixed)      : 0
        Drift error (maybe fixed)            : 0
        Dropped bytes error (maybe fixed)    : 0
        Duplicated bytes error (maybe fixed) : 0
        Inconsistency in error sectors       : 0

Track 12
    Filename : /Users/wesleyfrew/Desktop/Phon.O - Burn Down The Town (2005) - FLAC/12 Phon.o - Warten Auf Die 6.flac

    Pre-gap length : 00:02:00

    CRC32 hash (test run)  : E809363B
    CRC32 hash             : E809363B
    CRC32 hash (skip zero) : E3AC7C9A
    AccurateRip signature  : 86F3B09F
        ->Track not present in AccurateRip database.
    Statistics
        Read error                           : 0
        Skipped (treated as error)           : 0
        Edge jitter error (maybe fixed)      : 0
        Atom jitter error (maybe fixed)      : 0
        Drift error (maybe fixed)            : 0
        Dropped bytes error (maybe fixed)    : 0
        Duplicated bytes error (maybe fixed) : 0
        Inconsistency in error sectors       : 0

No errors occurred

End of status report

 
Код: Выделить всё
REM DATE 2005
REM GENRE Abstract, Techno
PERFORMER Phon.O
TITLE "Burn Down The Town"
FILE "01. Verborg Nie Die 6.wav" WAVE
  TRACK 1 AUDIO
    TITLE "Verborg Nie Die 6"
    PERFORMER Phon.O
    INDEX 01 00:00:00
FILE "02. Ridin' Dirty.wav" WAVE
  TRACK 2 AUDIO
    TITLE "Ridin' Dirty"
    PERFORMER Phon.O
    INDEX 01 00:00:00
FILE "03. Kyoto Station 6 Pm.wav" WAVE
  TRACK 3 AUDIO
    TITLE "Kyoto Station 6 Pm"
    PERFORMER Phon.O
    INDEX 01 00:00:00
FILE "04. 313 Dumpsta Railin'.wav" WAVE
  TRACK 4 AUDIO
    TITLE "313 Dumpsta Railin'"
    PERFORMER Phon.O
    INDEX 01 00:00:00
FILE "05. Trick Or Treat.wav" WAVE
  TRACK 5 AUDIO
    TITLE "Trick Or Treat"
    PERFORMER Phon.O
    INDEX 01 00:00:00
FILE "06. Aufschwung Ost.wav" WAVE
  TRACK 6 AUDIO
    TITLE "Aufschwung Ost"
    PERFORMER Phon.O
    INDEX 01 00:00:00
FILE "07. Melodia Per Un Passerino.wav" WAVE
  TRACK 7 AUDIO
    TITLE "Melodia Per Un Passerino"
    PERFORMER Phon.O
    INDEX 01 00:00:00
FILE "08. Burn Both Of Us.wav" WAVE
  TRACK 8 AUDIO
    TITLE "Burn Both Of Us"
    PERFORMER Phon.O
    INDEX 01 00:00:00
FILE "09. Busted In Da D.wav" WAVE
  TRACK 9 AUDIO
    TITLE "Busted In Da D"
    PERFORMER Phon.O
    INDEX 01 00:00:00
FILE "10. En Duo Avec George W..wav" WAVE
  TRACK 10 AUDIO
    TITLE "En Duo Avec George W."
    PERFORMER Phon.O
    INDEX 01 00:00:00
FILE "11. Bluehende Landschaften.wav" WAVE
  TRACK 11 AUDIO
    TITLE "Bluehende Landschaften"
    PERFORMER Phon.O
    INDEX 01 00:00:00
FILE "12. Warten Auf Die 6.wav" WAVE
  TRACK 12 AUDIO
    TITLE "Warten Auf Die 6"
    PERFORMER Phon.O
    INDEX 01 00:00:00

 
#77Год выпуска: 2012
Продолжительность: 00:49:04
Треклист:

01. Nightshifts (04:45)
02. Twilight (feat. Pantasz) (04:36)
03. Yudasi (02:00)
04. Die Maschinistin (04:53)
05. Black Boulder (03:40)
06. ABAW 723 (04:26)
07. Mosquitoes (05:13)
08. Leave A Light On (feat. Tunde Olaniran) (03:41)
09. Slavemode (05:18)
10. Hopelight (04:13)
11. 12th (06:19)
Код: Выделить всё
Exact Audio Copy V1.0 beta 3 from 29. August 2011

EAC extraction logfile from 23. June 2012, 14:39

Phon.O / Black Boulder

Used drive  : PLEXTOR DVDR   PX-755A   Adapter: 4  ID: 0

Read mode               : Secure
Utilize accurate stream : Yes
Defeat audio cache      : Yes
Make use of C2 pointers : No

Read offset correction                      : 30
Overread into Lead-In and Lead-Out          : No
Fill up missing offset samples with silence : Yes
Delete leading and trailing silent blocks   : No
Null samples used in CRC calculations       : Yes
Used interface                              : Native Win32 interface for Win NT & 2000
Gap handling                                : Appended to previous track

Used output format              : User Defined Encoder
Selected bitrate                : 1024 kBit/s
Quality                         : High
Add ID3 tag                     : No
Command line compressor         : C:\Program Files\Exact Audio Copy\Flac\flac.exe
Additional command line options : -8 -V -T "ARTIST=%artist%" -T "TITLE=%title%" -T "ALBUM=%albumtitle%" -T "DATE=%year%" -T "TRACKNUMBER=%tracknr%" -T "GENRE=%genre%" -T "PERFORMER=%albuminterpret%" -T "COMPOSER=%composer%" %haslyrics%--tag-from-file=LYRICS="%lyricsfile%"%haslyrics% -T "ALBUMARTIST=%albumartist%" -T "DISCNUMBER=%cdnumber%" -T "TOTALDISCS=%totalcds%" -T "TOTALTRACKS=%numtracks%" -T "COMMENT=%comment%" %source% -o %dest%

TOC of the extracted CD

     Track |   Start  |  Length  | Start sector | End sector
    ---------------------------------------------------------
        1  |  0:00.00 |  4:45.34 |         0    |    21408
        2  |  4:45.34 |  4:35.47 |     21409    |    42080
        3  |  9:21.06 |  2:00.14 |     42081    |    51094
        4  | 11:21.20 |  4:53.09 |     51095    |    73078
        5  | 16:14.29 |  3:40.19 |     73079    |    89597
        6  | 19:54.48 |  4:25.50 |     89598    |   109522
        7  | 24:20.23 |  5:13.32 |    109523    |   133029
        8  | 29:33.55 |  3:41.34 |    133030    |   149638
        9  | 33:15.14 |  5:18.24 |    149639    |   173512
       10  | 38:33.38 |  4:12.47 |    173513    |   192459
       11  | 42:46.10 |  6:18.56 |    192460    |   220865

Track  1

     Filename L:\MUSIC\Phon.O ‎- Black Boulder (2012) [FLAC]\1-01. Phon.O - Nightshifts.wav

     Pre-gap length  0:00:02.00

     Peak level 100.0 %
     Extraction speed 2.2 X
     Track quality 100.0 %
     Test CRC 1825D9C3
     Copy CRC 1825D9C3
     Track not present in AccurateRip database
     Copy OK

Track  2

     Filename L:\MUSIC\Phon.O ‎- Black Boulder (2012) [FLAC]\1-02. Phon.O - Twilight.wav

     Peak level 100.0 %
     Extraction speed 2.2 X
     Track quality 100.0 %
     Test CRC 076AD570
     Copy CRC 076AD570
     Track not present in AccurateRip database
     Copy OK

Track  3

     Filename L:\MUSIC\Phon.O ‎- Black Boulder (2012) [FLAC]\1-03. Phon.O - Yudasi.wav

     Peak level 100.0 %
     Extraction speed 1.1 X
     Track quality 99.9 %
     Test CRC F38464F1
     Copy CRC F38464F1
     Track not present in AccurateRip database
     Copy OK

Track  4

     Filename L:\MUSIC\Phon.O ‎- Black Boulder (2012) [FLAC]\1-04. Phon.O - Die Maschinistin.wav

     Peak level 100.0 %
     Extraction speed 1.6 X
     Track quality 99.9 %
     Test CRC 646384C4
     Copy CRC 646384C4
     Track not present in AccurateRip database
     Copy OK

Track  5

     Filename L:\MUSIC\Phon.O ‎- Black Boulder (2012) [FLAC]\1-05. Phon.O - Black Boulder.wav

     Peak level 100.0 %
     Extraction speed 2.1 X
     Track quality 100.0 %
     Test CRC 12CDAE69
     Copy CRC 12CDAE69
     Track not present in AccurateRip database
     Copy OK

Track  6

     Filename L:\MUSIC\Phon.O ‎- Black Boulder (2012) [FLAC]\1-06. Phon.O - ABAW 723.wav

     Peak level 100.0 %
     Extraction speed 2.2 X
     Track quality 100.0 %
     Test CRC AA5586D5
     Copy CRC AA5586D5
     Track not present in AccurateRip database
     Copy OK

Track  7

     Filename L:\MUSIC\Phon.O ‎- Black Boulder (2012) [FLAC]\1-07. Phon.O - Mosquitoes.wav

     Peak level 100.0 %
     Extraction speed 2.2 X
     Track quality 100.0 %
     Test CRC 95240AAD
     Copy CRC 95240AAD
     Track not present in AccurateRip database
     Copy OK

Track  8

     Filename L:\MUSIC\Phon.O ‎- Black Boulder (2012) [FLAC]\1-08. Phon.O - Leave A Light On.wav

     Peak level 100.0 %
     Extraction speed 1.5 X
     Track quality 99.9 %
     Test CRC 8F561E1C
     Copy CRC 8F561E1C
     Track not present in AccurateRip database
     Copy OK

Track  9

     Filename L:\MUSIC\Phon.O ‎- Black Boulder (2012) [FLAC]\1-09. Phon.O - Slavemode.wav

     Peak level 100.0 %
     Extraction speed 2.2 X
     Track quality 100.0 %
     Test CRC 938F2AF8
     Copy CRC 938F2AF8
     Track not present in AccurateRip database
     Copy OK

Track 10

     Filename L:\MUSIC\Phon.O ‎- Black Boulder (2012) [FLAC]\1-10. Phon.O - Hopelight.wav

     Peak level 100.0 %
     Extraction speed 1.5 X
     Track quality 99.9 %
     Test CRC 390104B0
     Copy CRC 390104B0
     Track not present in AccurateRip database
     Copy OK

Track 11

     Filename L:\MUSIC\Phon.O ‎- Black Boulder (2012) [FLAC]\1-11. Phon.O - 12th.wav

     Peak level 100.0 %
     Extraction speed 2.3 X
     Track quality 100.0 %
     Test CRC A14F2638
     Copy CRC A14F2638
     Track not present in AccurateRip database
     Copy OK

None of the tracks are present in the AccurateRip database

No errors occurred

End of status report

---- CUETools DB Plugin V2.1.3

[CTDB TOCID: ZRWhjz0BZeZwBNtVbch6XwHP.iI-] disk not present in database, Submit result: ZRWhjz0BZeZwBNtVbch6XwHP.iI- has been uploaded

==== Log checksum 768D41A3D26B4A5AE33E9314326112A15281D982ED25193F9A346AD3469F88BC ====

 
Код: Выделить всё
REM GENRE "Dubstep, UK Garage, Techno, Dub Techno"
REM DATE 2012
REM DISCID B40B800B
REM COMMENT "ExactAudioCopy v1.0b3"
PERFORMER "Phon.O"
TITLE "Black Boulder"
FILE "1-01. Phon.O - Nightshifts.wav" WAVE
  TRACK 01 AUDIO
    TITLE "Nightshifts"
    PERFORMER "Phon.O"
    ISRC DEOE81100212
    INDEX 01 00:00:00
FILE "1-02. Phon.O - Twilight.wav" WAVE
  TRACK 02 AUDIO
    TITLE "Twilight"
    PERFORMER "Phon.O"
    ISRC DEOE81100213
    INDEX 01 00:00:00
FILE "1-03. Phon.O - Yudasi.wav" WAVE
  TRACK 03 AUDIO
    TITLE "Yudasi"
    PERFORMER "Phon.O"
    ISRC DEOE81100214
    INDEX 01 00:00:00
FILE "1-04. Phon.O - Die Maschinistin.wav" WAVE
  TRACK 04 AUDIO
    TITLE "Die Maschinistin"
    PERFORMER "Phon.O"
    ISRC DEOE81100215
    INDEX 01 00:00:00
FILE "1-05. Phon.O - Black Boulder.wav" WAVE
  TRACK 05 AUDIO
    TITLE "Black Boulder"
    PERFORMER "Phon.O"
    ISRC DEOE81100216
    INDEX 01 00:00:00
FILE "1-06. Phon.O - ABAW 723.wav" WAVE
  TRACK 06 AUDIO
    TITLE "ABAW 723"
    PERFORMER "Phon.O"
    ISRC DEOE81100217
    INDEX 01 00:00:00
FILE "1-07. Phon.O - Mosquitoes.wav" WAVE
  TRACK 07 AUDIO
    TITLE "Mosquitoes"
    PERFORMER "Phon.O"
    ISRC DEOE81100218
    INDEX 01 00:00:00
FILE "1-08. Phon.O - Leave A Light On.wav" WAVE
  TRACK 08 AUDIO
    TITLE "Leave A Light On"
    PERFORMER "Phon.O"
    ISRC DEOE81100219
    INDEX 01 00:00:00
FILE "1-09. Phon.O - Slavemode.wav" WAVE
  TRACK 09 AUDIO
    TITLE "Slavemode"
    PERFORMER "Phon.O"
    ISRC DEOE81100220
    INDEX 01 00:00:00
FILE "1-10. Phon.O - Hopelight.wav" WAVE
  TRACK 10 AUDIO
    TITLE "Hopelight"
    PERFORMER "Phon.O"
    ISRC DEOE81100221
    INDEX 01 00:00:00
FILE "1-11. Phon.O - 12th.wav" WAVE
  TRACK 11 AUDIO
    TITLE "12th"
    PERFORMER "Phon.O"
    ISRC DEOE81100222
    INDEX 01 00:00:00

 
#77Год выпуска: 2011
Продолжительность: 00:10:13
Треклист:

01. ABAW 723 (04:25)
02. Sad Happiness (05:48)
Код: Выделить всё
-----------------------

DON'T MODIFY THIS FILE

-----------------------

PERFORMER: auCDtect Task Manager, ver. 1.6.0 RC1 build 1.6.0.1
Copyright (c) 2008-2010 y-soft. All rights reserved
[url=http://y-soft.org]http://y-soft.org[/url]

ANALYZER: auCDtect: CD records authenticity detector, version 0.8.2
Copyright (c) 2004 Oleg Berngardt. All rights reserved.
Copyright (c) 2004 Alexander Djourik. All rights reserved.

FILE: 02. Sad Happiness.flac
  Size: 38918353 Hash: EEEF38E8CABDA56D46F56C4D15851E6C Accuracy: -m0
  Conclusion: CDDA 100%
  Signature: B3FEF4CCBF1C0B3951C78193E02EFF4D76ECF83B
FILE: 01. ABAW 723.flac
  Size: 27010669 Hash: EBE0E7BAFCC99A1329C72FE5AE284178 Accuracy: -m0
  Conclusion: CDDA 100%
  Signature: CE07025EB7B13BBCA9CCCF98A8FD8CCBA20F2B11

 
#77Год выпуска: 2011
Продолжительность: 00:10:38
Треклист:

01. Anstam - Albert (04:56)
02. Phon.O - IL62 (05:42)
Код: Выделить всё
-----------------------

DON'T MODIFY THIS FILE

-----------------------

PERFORMER: auCDtect Task Manager, ver. 1.5.1RC6 build 1.5.1.7
Copyright (c) 2008-2010 y-soft. All rights reserved
[url=http://y-soft.org]http://y-soft.org[/url]

ANALYZER: auCDtect: CD records authenticity detector, version 0.8.2
Copyright (c) 2004 Oleg Berngardt. All rights reserved.
Copyright (c) 2004 Alexander Djourik. All rights reserved.

FILE: 02. Phon.o - IL62.flac
  Size: 38154907 Hash: E81A7DECA505A7367A35F542F20BAC9D Accuracy: -m0
  Conclusion: CDDA 100%
  Signature: FD41EBB699F600BFEB35A42AC3649532A6A0ED76
FILE: 01. Anstam - Albert.flac
  Size: 26651800 Hash: 89CB52B0875F457F964F1F6A8F71DAB2 Accuracy: -m0
  Conclusion: CDDA 100%
  Signature: CFC76D2C7C35383AA8DC3ADB996B1686A574F4B2

 
#77Год выпуска: 2011
Продолжительность: 00:10:48
Треклист:

01. Slavemode (05:40)
02. Abbey Road (05:08)
Код: Выделить всё
-----------------------

DON'T MODIFY THIS FILE

-----------------------

PERFORMER: auCDtect Task Manager, ver. 1.6.0 RC1 build 1.6.0.1
Copyright (c) 2008-2010 y-soft. All rights reserved
[url=http://y-soft.org]http://y-soft.org[/url]

ANALYZER: auCDtect: CD records authenticity detector, version 0.8.2
Copyright (c) 2004 Oleg Berngardt. All rights reserved.
Copyright (c) 2004 Alexander Djourik. All rights reserved.

FILE: 02. Abbey Road.flac
  Size: 34480089 Hash: D3EF9A28309D15474B402DCDA17351FD Accuracy: -m0
  Conclusion: CDDA 99%
  Signature: C34ABF7410BB2744CCC0B7642AA291EBA3257FEB
FILE: 01. Slavemode.flac
  Size: 36750411 Hash: B63F933BBAFD5A0D6B5C8EB8F112BEBE Accuracy: -m0
  Conclusion: CDDA 100%
  Signature: 4E985CB1B5F57175B8784576BB82C07571C775AD

 
#77Год выпуска: 2013
Продолжительность: 00:13:13
Треклист:

01. Schn33 (06:34)
02. Go (06:39)
Код: Выделить всё
-----------------------

DON'T MODIFY THIS FILE

-----------------------

PERFORMER: auCDtect Task Manager, ver. 1.5.1RC6 build 1.5.1.7
Copyright (c) 2008-2010 y-soft. All rights reserved
[url=http://y-soft.org]http://y-soft.org[/url]

ANALYZER: auCDtect: CD records authenticity detector, version 0.8.2
Copyright (c) 2004 Oleg Berngardt. All rights reserved.
Copyright (c) 2004 Alexander Djourik. All rights reserved.

FILE: 02. Go.flac
  Size: 46054801 Hash: 5811515523BB091336DEE9AD79FF46E3 Accuracy: -m0
  Conclusion: MPEG 91%
  Signature: 30169A76330758E548E784220ADCD96C916831C1
FILE: 01. Schn33.flac
  Size: 47509906 Hash: 81F1C035A8D597BABF5F2B7131F551A8 Accuracy: -m0
  Conclusion: CDDA 76%
  Signature: 07B9E20B73377CD13FC4526FAB08FC0736DA7A6B

 
#77Год выпуска: 2014
Продолжительность: 00:14:17
Треклист:

01. Herenow (feat. Bass Sekolah) (06:14)
02. Kellerkind (04:25)
03. Moonwalk (03:38)
Код: Выделить всё
-----------------------

DON'T MODIFY THIS FILE

-----------------------

PERFORMER: auCDtect Task Manager, ver. 1.5.1RC6 build 1.5.1.7
Copyright (c) 2008-2010 y-soft. All rights reserved
[url=http://y-soft.org]http://y-soft.org[/url]

ANALYZER: auCDtect: CD records authenticity detector, version 0.8.2
Copyright (c) 2004 Oleg Berngardt. All rights reserved.
Copyright (c) 2004 Alexander Djourik. All rights reserved.

FILE: 03. Moonwalk.flac
  Size: 23076125 Hash: C2CEB9F8716615607C7FEB7F76F044F6 Accuracy: -m0
  Conclusion: CDDA 100%
  Signature: 0099E7C23004DCA71231C98D3C20A0C87A70CDAA
FILE: 02. Kellerkind.flac
  Size: 28618976 Hash: F8D05792E91D382ADF1E04C514D90EB1 Accuracy: -m0
  Conclusion: CDDA 100%
  Signature: EF06092CA7E3CE2B62DDE570E4750AFCB1EFC8CB
FILE: 01. Herenow (Feat. Bass Sekolah).flac
  Size: 43445466 Hash: 6BF61DC84082F560C55E6C2BFCCD8C3B Accuracy: -m0
  Conclusion: CDDA 100%
  Signature: 7D5329E04EE583E7AD437CD0320930840200EAE5

 
#77Год выпуска: 2014
Продолжительность: 00:15:42
Треклист:

01. Defrost (05:38)
02. Whi5tleblower (06:41)
03. Crystal Math (03:23)
Код: Выделить всё
-----------------------

DON'T MODIFY THIS FILE

-----------------------

PERFORMER: auCDtect Task Manager, ver. 1.5.1RC6 build 1.5.1.7
Copyright (c) 2008-2010 y-soft. All rights reserved
[url=http://y-soft.org]http://y-soft.org[/url]

ANALYZER: auCDtect: CD records authenticity detector, version 0.8.2
Copyright (c) 2004 Oleg Berngardt. All rights reserved.
Copyright (c) 2004 Alexander Djourik. All rights reserved.

FILE: 02. Crystal Math.flac
  Size: 18800557 Hash: 03D307F86ADE2F0F6F98CB4AD934E6D9 Accuracy: -m0
  Conclusion: CDDA 100%
  Signature: 8F9930F71815113043F5F09D69C87BA51081A2F0
FILE: 01. Whi5tleblower.flac
  Size: 48030863 Hash: DF79E723FB82689193D4820BFF9935EF Accuracy: -m0
  Conclusion: CDDA 100%
  Signature: 73581FBC36A14643EBC3477DA8D5F46634579E9E
FILE: 01. Defrost.flac
  Size: 35075810 Hash: 9C7EE976975C16672BA50980E878E097 Accuracy: -m0
  Conclusion: CDDA 100%
  Signature: D6A5800CD9C8C982B839360971389AA8229DBE9E

 
#77Год выпуска: 2015
Продолжительность: 00:11:48
Треклист:

01. Phon.O - Tw33tz (06:22)
02. Paula Temple - Oscillate (05:26)
Код: Выделить всё
-----------------------

DON'T MODIFY THIS FILE

-----------------------

PERFORMER: auCDtect Task Manager, ver. 1.6.0 RC1 build 1.6.0.1
Copyright (c) 2008-2010 y-soft. All rights reserved
[url=http://y-soft.org]http://y-soft.org[/url]

ANALYZER: auCDtect: CD records authenticity detector, version 0.8.2
Copyright (c) 2004 Oleg Berngardt. All rights reserved.
Copyright (c) 2004 Alexander Djourik. All rights reserved.

FILE: 02. Paula Temple - Oscillate.flac
  Size: 31644752 Hash: ED02AE9E046AC689C97E7339763C8595 Accuracy: -m0
  Conclusion: CDDA 100%
  Signature: B597D94047A46D739C1C574D735302DCF8337D04
FILE: 01. Phon.O - Tw33tz.flac
  Size: 40512434 Hash: 3AC4766424F08FB2EB15C1BD35B4BB4A Accuracy: -m0
  Conclusion: CDDA 100%
  Signature: 80F6B4D9591C20419D31B2FF84CF63AC3E7C62A9

 
#77Год выпуска: 2015
Продолжительность: 00:17:26
Треклист:

01. Bodycheck (feat. Born In Flamez) (04:22)
02. Bodycheck (Dark Club Version) (07:22)
03. SOAG (05:42)
Код: Выделить всё
-----------------------

DON'T MODIFY THIS FILE

-----------------------

PERFORMER: auCDtect Task Manager, ver. 1.6.0 RC1 build 1.6.0.1
Copyright (c) 2008-2010 y-soft. All rights reserved
[url=http://y-soft.org]http://y-soft.org[/url]

ANALYZER: auCDtect: CD records authenticity detector, version 0.8.2
Copyright (c) 2004 Oleg Berngardt. All rights reserved.
Copyright (c) 2004 Alexander Djourik. All rights reserved.

FILE: 03. SOAG.flac
  Size: 37548997 Hash: CDCD835EE33D5CFF674585099423FD2A Accuracy: -m0
  Conclusion: CDDA 100%
  Signature: 1C24F2E261983CFA871301C28AE437DA8347250D
FILE: 02. Bodycheck (Dark Club Version).flac
  Size: 46579091 Hash: 54391602515885E093D075218A11EABB Accuracy: -m0
  Conclusion: CDDA 100%
  Signature: E4BED389FDA94D77B0204D0815BD8129B6535BCF
FILE: 01. Bodycheck (feat. Born In Flamez).flac
  Size: 28309016 Hash: AAE4E7F91BECF3D2B9183CD5B8F001F7 Accuracy: -m0
  Conclusion: CDDA 100%
  Signature: 42C49167A2F5FB8A6460E878B8F24225B54517F7

 
#77Год выпуска: 2016
Продолжительность: 00:14:31
Треклист:

01. Mercurial (05:25)
02. U8 Phunk (04:46)
03. Bell Blender (04:20)
Код: Выделить всё
-----------------------

DON'T MODIFY THIS FILE

-----------------------

PERFORMER: auCDtect Task Manager, ver. 1.6.0 RC1 build 1.6.0.1
Copyright (c) 2008-2010 y-soft. All rights reserved
[url=http://y-soft.org]http://y-soft.org[/url]

ANALYZER: auCDtect: CD records authenticity detector, version 0.8.2
Copyright (c) 2004 Oleg Berngardt. All rights reserved.
Copyright (c) 2004 Alexander Djourik. All rights reserved.

FILE: 03. Bell Blender.flac
  Size: 27360146 Hash: 02A40EB3BC4C00EDDDA09C0257338A7A Accuracy: -m0
  Conclusion: CDDA 100%
  Signature: 2D4D06A6DE0F2C70D178634039871450C7144457
FILE: 02. U8 Phunk.flac
  Size: 32998930 Hash: DA7C85536407F3CB89788ADFF9AF8EFF Accuracy: -m0
  Conclusion: CDDA 99%
  Signature: 0018C69D56F7255B4E3674C27684CA81FFDDAE80
FILE: 01. Mercurial.flac
  Size: 30856457 Hash: 9E2CDB46F2CB28794D5F776E97065094 Accuracy: -m0
  Conclusion: CDDA 94%
  Signature: D7CC3B5F75028929007D2A58B13BFE48431C5010

 
#77Год выпуска: 2016
Продолжительность: 00:17:53
Треклист:

01. Run (06:31)
02. Brooklyn Shuffle (05:03)
03. Fractions (06:19)
Код: Выделить всё
-----------------------

DON'T MODIFY THIS FILE

-----------------------

PERFORMER: auCDtect Task Manager, ver. 1.5.1RC6 build 1.5.1.7
Copyright (c) 2008-2010 y-soft. All rights reserved
[url=http://y-soft.org]http://y-soft.org[/url]

ANALYZER: auCDtect: CD records authenticity detector, version 0.8.2
Copyright (c) 2004 Oleg Berngardt. All rights reserved.
Copyright (c) 2004 Alexander Djourik. All rights reserved.

FILE: 03. Fractions.flac
  Size: 42152046 Hash: 25E3C7F62CB735FA557E62A12F011254 Accuracy: -m0
  Conclusion: CDDA 100%
  Signature: 6FB7E8B704B7EDE410250366D2A5A618A4282665
FILE: 02. Brooklyn Shuffle.flac
  Size: 36621634 Hash: 49791410933BA8ED5D3325FD0180AECF Accuracy: -m0
  Conclusion: CDDA 100%
  Signature: 34195733BAF35C08BDD87B54F4BB29032EA1E94D
FILE: 01. Run.flac
  Size: 43833002 Hash: 826CC1078545B55BFBA5E9FEC3F9D275 Accuracy: -m0
  Conclusion: CDDA 100%
  Signature: F0F347693C01662FDEC9AB8450F28510725E8700

 
#77Год выпуска: 2017
Продолжительность: 00:14:57
Треклист:

01. CLU5T3R (05:44)
02. V3R5U5 (04:47)
03. H4NDCUFF3D (04:26)
Код: Выделить всё
-----------------------

DON'T MODIFY THIS FILE

-----------------------

PERFORMER: auCDtect Task Manager, ver. 1.6.0 RC1 build 1.6.0.1
Copyright (c) 2008-2010 y-soft. All rights reserved
[url=http://y-soft.org]http://y-soft.org[/url]

ANALYZER: auCDtect: CD records authenticity detector, version 0.8.2
Copyright (c) 2004 Oleg Berngardt. All rights reserved.
Copyright (c) 2004 Alexander Djourik. All rights reserved.

FILE: 03. H4NDCUFF3D.flac
  Size: 29098405 Hash: 3C82BAE1C6F32801A2CDFA785ADE1BF1 Accuracy: -m0
  Conclusion: CDDA 100%
  Signature: E4978C680C8EFB3ADB202D45B8C3A74BAA889A37
FILE: 02. V3R5U5.flac
  Size: 34986337 Hash: 506B9B75572217708827E514A28C277E Accuracy: -m0
  Conclusion: CDDA 100%
  Signature: DEEAE3DAF66BA7D8375EC8B41704B2CE83B9BD9A
FILE: 01. CLU5T3R.flac
  Size: 38401466 Hash: 109D716CA879524BBA77867E23BF1038 Accuracy: -m0
  Conclusion: CDDA 100%
  Signature: FB7C0CB24A70295B6A8F5E32613B4F2EFB843B48

 
#77Год выпуска: 2018
Продолжительность: 00:21:41
Треклист:

01. Leaving Khidi (10:14)
02. Snapchat Soliloquy (07:27)
03. I Am Tired So How Are You (04:00)
Код: Выделить всё
-----------------------

DON'T MODIFY THIS FILE

-----------------------

PERFORMER: auCDtect Task Manager, ver. 1.6.0 RC1 build 1.6.0.1
Copyright (c) 2008-2010 y-soft. All rights reserved
[url=http://y-soft.org]http://y-soft.org[/url]

ANALYZER: auCDtect: CD records authenticity detector, version 0.8.2
Copyright (c) 2004 Oleg Berngardt. All rights reserved.
Copyright (c) 2004 Alexander Djourik. All rights reserved.

FILE: 03. I Am Tired So How Are You.flac
  Size: 22454474 Hash: 84A1BF6C7CAF342ACC6AB5E7A2F410F8 Accuracy: -m0
  Conclusion: CDDA 99%
  Signature: 42A4E23EF5172C8CE621D41C26A1ACE372BEFD2C
FILE: 02. Snapchat Soliloquy.flac
  Size: 38081990 Hash: 06534CD3EE518713F1FDA1D351215280 Accuracy: -m0
  Conclusion: CDDA 94%
  Signature: 3CEBF67467128B4C262C72A70518256786164EDB
FILE: 01. Leaving Khidi.flac
  Size: 59303137 Hash: BFECA772E714321C0A480BE4165DF4C5 Accuracy: -m0
  Conclusion: CDDA 100%
  Signature: 7F8258564CF106D8161E157EBC9D47ECBADA228E

 
Время раздачи: 12/7

 
Не забывайте говорить Спасибо. Не уходите с раздачи!   
Торрент: Зарегистрирован [22 янв 2018, 19:48] Скачать торрент
Скачать торрент
[ Размер 24.41 КБ / Просмотров 33 ]
Статус:
Проверен
 
.torrent скачан: 0 раз
Хэш: 6771b5ecb5d072b8b33ab1ef393836c32025d327
Размер: 1.55 ГБ (1 667 244 678 байт)
Стать Автором раздачи
 
 
Раздал: 0 байт
Скачал: 0 байт
Ратио: Inf.
Сообщения: 43760
Зарегистрирован: 05 окт 2014, 15:23


  • Похожие торренты
    Ответы
    Просмотры
    Последнее сообщение

Вернуться в House, Techno, Electro, Minimal (транзит Lossless)

Ресурс не предоставляет электронные версии произведений, а занимается лишь коллекционированием и каталогизацией ссылок, присылаемых и публикуемых на форуме нашими читателями. Если вы являетесь правообладателем какого-либо представленного материала и не желаете чтобы ссылка на него находилась в нашем каталоге, свяжитесь с нами и мы незамедлительно удалим её. Файлы для обмена на трекере предоставлены пользователями сайта, и администрация не несёт ответственности за их содержание. Просьба не заливать файлы, защищенные авторскими правами, а также файлы нелегального содержания!