Тухляк / Con Air / Серии: 01-04 [2017, смешной перевод, пародия, комедия, HDRip][студия GopCompany] AVO

 
 Статистика раздачи 
Размер: 1.45 ГБ   |  Зарегистрирован: 21 янв 2018, 15:41   |   .torrent скачан: 0 раз
Сидеров: 1  [ 0 байт/сек ]     Личеров: 0  [ 0 байт/сек ]  
  

Тухляк / Con Air / Серии: 01-04 [2017, смешной перевод, пародия, комедия, HDRip][студия GopCompany] AVO

Сообщение Nakazhu » 21 янв 2018, 15:41

Тухляк / Con Air
Год выпуска: 2017
Страна: США
Жанр: пародия, комедия, юмористический перевод
Продолжительность: 4х ~20 мин
Перевод: любительский одноголосый (смешной перевод студии GopCompany)
Режиссер: Саймон Уэст
В ролях: Николас Кейдж, Колм Мини, Джон Кьюсак, Майкелти Уильямсон, Ник Чинланд, Джон Малкович, Стив Бушеми, Винг Реймз, Дэйв Шаппелл, Рейчел Тикотин
Описание:
Вячеслав Печальный, похитив форму нацгвардейца, неудачно знакомится со странной девушкой по имени Гриша. Эта встреча порождает целую цепь трагических событий в его жизни. Вячеслав избивает пьяного мужика, попадает на семь суток в изолятор и знакомится с Семёнычем. А затем Печальный ещё и попадает на экспериментальный рейс летающего трамвая. Компанию в полёте ему составят мажор Сеня Еплёткин, лесной айболит Дмитрий Кустовой, футбольный хулиган Серёга (фанат Сергея Бодрова-младшего), группа «Ногу свело» и ряд других интересных личностей.
Дополнительная информация:
Смешной перевод "Воздушной тюрьмы". Выполняется по фрагментам, в виде сериала.
Присутствует нецензурная лексика.
Качество: HDRip
Формат: AVI
Видео кодек: XviD
Аудио кодек: MP3
Видео: 720x304 (2.37:1), 23.976 fps, XviD build 64 ~2094 kbps avg, 0.40 bit/pixel
Аудио: 48 kHz, MPEG Layer 3, 2 ch, ~192.00 kbps avg
Семпл
Tuhlyak.01
Tuhlyak.02
Tuhlyak.03
Tuhlyak.03
Внимание! Раздача ведётся путём добавления новых выпусков; при каждом добавлении создаётся новый торрент. Чтобы начать докачку нового выпуска, пользователям необходимо сделать следующее: (1) остановить скачивание, (2) удалить старый торрент у себя из клиента (старые серии удалять не надо), (3) скачать новый торрент и запустить его у себя в клиенте вместо старого, при этом указать клиенту путь в старую папку куда и должно происходить скачивание новых выпусков. Ваш клиент при этом должен произвести хеширование (проверку) старой папки (если не производит сам - помогите ему сделать это). В результате он будет докачивать только те выпуски, которых у Вас ещё нет. Старые выпуски при этом не удаляются, а продолжают раздаваться! Eсли Вы уже удалили старые выпуски, то предотвратить их повторную закачку можно, сняв галочки в соответствующих местах при запуске нового торрента. По возможности, желательно не удалять старые выпуски как можно дольше, чтобы релизёр не только продолжал раздавать старые выпуски, но и смог сконцентрироваться на новых.
Код: Выделить всё
General
Complete name                    : E:\___фильмы\Tuhlyak\Tuhlyak.01.avi
Format                           : AVI
Format/Info                      : Audio Video Interleave
File size                        : 493 MiB
Duration                         : 30mn 1s
Overall bit rate                 : 2 296 Kbps
Video
ID                               : 0
Format                           : MPEG-4 Visual
Format profile                   : AdvancedSimple@L5
Format settings, BVOP            : Yes
Format settings, QPel            : No
Format settings, GMC             : No warppoints
Format settings, Matrix          : Default (MPEG)
Codec ID                         : XVID
Codec ID/Hint                    : XviD
Duration                         : 30mn 1s
Bit rate                         : 2 094 Kbps
Width                            : 720 pixels
Height                           : 304 pixels
Display aspect ratio             : 2.35:1
Frame rate                       : 23.976 fps
Resolution                       : 24 bits
Colorimetry                      : 4:2:0
Scan type                        : Progressive
Bits/(Pixel*Frame)               : 0.399
Stream size                      : 450 MiB (91%)
Writing library                  : XviD 64
Audio
ID                               : 1
Format                           : MPEG Audio
Format version                   : Version 1
Format profile                   : Layer 3
Codec ID                         : 55
Codec ID/Hint                    : MP3
Duration                         : 30mn 1s
Bit rate mode                    : Constant
Bit rate                         : 192 Kbps
Channel(s)                       : 2 channels
Sampling rate                    : 48.0 KHz
Resolution                       : 16 bits
Stream size                      : 41.2 MiB (8%)
Alignment                        : Split accross interleaves
Interleave, duration             : 42 ms (1.00 video frame)
General
Complete name                    : E:\___фильмы\Tuhlyak\Tuhlyak.02.avi
Format                           : AVI
Format/Info                      : Audio Video Interleave
File size                        : 317 MiB
Duration                         : 19mn 27s
Overall bit rate                 : 2 275 Kbps
Video
ID                               : 0
Format                           : MPEG-4 Visual
Format profile                   : AdvancedSimple@L5
Format settings, BVOP            : Yes
Format settings, QPel            : No
Format settings, GMC             : No warppoints
Format settings, Matrix          : Default (MPEG)
Codec ID                         : XVID
Codec ID/Hint                    : XviD
Duration                         : 19mn 27s
Bit rate                         : 2 073 Kbps
Width                            : 720 pixels
Height                           : 304 pixels
Display aspect ratio             : 2.35:1
Frame rate                       : 23.976 fps
Resolution                       : 24 bits
Colorimetry                      : 4:2:0
Scan type                        : Progressive
Bits/(Pixel*Frame)               : 0.395
Stream size                      : 289 MiB (91%)
Writing library                  : XviD 64
Audio
ID                               : 1
Format                           : MPEG Audio
Format version                   : Version 1
Format profile                   : Layer 3
Codec ID                         : 55
Codec ID/Hint                    : MP3
Duration                         : 19mn 27s
Bit rate mode                    : Constant
Bit rate                         : 192 Kbps
Channel(s)                       : 2 channels
Sampling rate                    : 48.0 KHz
Resolution                       : 16 bits
Stream size                      : 26.7 MiB (8%)
Alignment                        : Split accross interleaves
Interleave, duration             : 42 ms (1.00 video frame)
General
Complete name                    : E:\___фильмы\Tuhlyak\Tuhlyak.03.avi
Format                           : AVI
Format/Info                      : Audio Video Interleave
File size                        : 340 MiB
Duration                         : 20mn 40s
Overall bit rate                 : 2 296 Kbps
Video
ID                               : 0
Format                           : MPEG-4 Visual
Format profile                   : AdvancedSimple@L5
Format settings, BVOP            : Yes
Format settings, QPel            : No
Format settings, GMC             : No warppoints
Format settings, Matrix          : Default (MPEG)
Codec ID                         : XVID
Codec ID/Hint                    : XviD
Duration                         : 20mn 40s
Bit rate                         : 2 095 Kbps
Width                            : 720 pixels
Height                           : 304 pixels
Display aspect ratio             : 2.35:1
Frame rate                       : 23.976 fps
Resolution                       : 24 bits
Colorimetry                      : 4:2:0
Scan type                        : Progressive
Bits/(Pixel*Frame)               : 0.399
Stream size                      : 310 MiB (91%)
Writing library                  : XviD 64
Audio
ID                               : 1
Format                           : MPEG Audio
Format version                   : Version 1
Format profile                   : Layer 3
Codec ID                         : 55
Codec ID/Hint                    : MP3
Duration                         : 20mn 40s
Bit rate mode                    : Constant
Bit rate                         : 192 Kbps
Channel(s)                       : 2 channels
Sampling rate                    : 48.0 KHz
Resolution                       : 16 bits
Stream size                      : 28.4 MiB (8%)
Alignment                        : Split accross interleaves
Interleave, duration             : 42 ms (1.00 video frame)
General
Complete name                    : E:\___фильмы\Tuhlyak.04.avi
Format                           : AVI
Format/Info                      : Audio Video Interleave
File size                        : 335 MiB
Duration                         : 20mn 25s
Overall bit rate                 : 2 297 Kbps
Video
ID                               : 0
Format                           : MPEG-4 Visual
Format profile                   : AdvancedSimple@L5
Format settings, BVOP            : Yes
Format settings, QPel            : No
Format settings, GMC             : No warppoints
Format settings, Matrix          : Default (MPEG)
Codec ID                         : XVID
Codec ID/Hint                    : XviD
Duration                         : 20mn 25s
Bit rate                         : 2 095 Kbps
Width                            : 720 pixels
Height                           : 304 pixels
Display aspect ratio             : 2.35:1
Frame rate                       : 23.976 fps
Resolution                       : 24 bits
Colorimetry                      : 4:2:0
Scan type                        : Progressive
Bits/(Pixel*Frame)               : 0.399
Stream size                      : 306 MiB (91%)
Writing library                  : XviD 64
Audio
ID                               : 1
Format                           : MPEG Audio
Format version                   : Version 1
Format profile                   : Layer 3
Codec ID                         : 55
Codec ID/Hint                    : MP3
Duration                         : 20mn 25s
Bit rate mode                    : Constant
Bit rate                         : 192 Kbps
Channel(s)                       : 2 channels
Sampling rate                    : 48.0 KHz
Resolution                       : 16 bits
Stream size                      : 28.0 MiB (8%)
Alignment                        : Split accross interleaves
Interleave, duration             : 42 ms (1.00 video frame)
Writing library                  : LAMELAME_MAJOR_VERSI
 
Не забывайте говорить Спасибо. Не уходите с раздачи!   
Торрент: Зарегистрирован [21 янв 2018, 15:41] Скачать торрент
Скачать торрент
[ Размер 15.1 КБ / Просмотров 16 ]
Статус:
Проверен
 
.torrent скачан: 0 раз
Хэш: 7aa1e2e3a78c00cfdff84c64d7e223260f02bd37
Размер: 1.45 ГБ (1 556 841 818 байт)
Стать Автором раздачи
 
 
Раздал: 0 байт
Скачал: 0 байт
Ратио: Inf.
Сообщения: 487468
Зарегистрирован: 17 апр 2014, 13:57


  • Похожие торренты
    Ответы
    Просмотры
    Последнее сообщение

Вернуться в Фильмы со смешным переводом (пародии)

Ресурс не предоставляет электронные версии произведений, а занимается лишь коллекционированием и каталогизацией ссылок, присылаемых и публикуемых на форуме нашими читателями. Если вы являетесь правообладателем какого-либо представленного материала и не желаете чтобы ссылка на него находилась в нашем каталоге, свяжитесь с нами и мы незамедлительно удалим её. Файлы для обмена на трекере предоставлены пользователями сайта, и администрация не несёт ответственности за их содержание. Просьба не заливать файлы, защищенные авторскими правами, а также файлы нелегального содержания!
cron