Наши в Космосе и не только / Marvel's Guardians of the Galaxy / Сезон: 1 / Серии: 4 из 10 [2015-2017, смешной перевод, пародия, комедия, DVDRip] MVO

 
 Статистика раздачи 
Размер: 1.61 ГБ   |  Зарегистрирован: 21 янв 2018, 14:22   |   .torrent скачан: 0 раз
Сидеров: 1  [ 0 байт/сек ]     Личеров: 0  [ 0 байт/сек ]  
  

Наши в Космосе и не только / Marvel's Guardians of the Galaxy / Сезон: 1 / Серии: 4 из 10 [2015-2017, смешной перевод, пародия, комедия, DVDRip] MVO

Сообщение Nakazhu » 21 янв 2018, 14:22

Наши в Космосе и не только (2015-2017) DVDRip
Год выпуска: 2015-2017
Страна: США
Жанр: пародия, комедия
Продолжительность: 4х~00:24:00
Перевод: любительский многоголосый (альтернативный перевод ТО Гонфильм)
Режиссер: Лео Райли, Oxid
Описание: Смешной перевод мультсериала "Стражи Галактики".
Все еще светлое социалистическое будущее. После гибели Куратора Нан-Ро Туманность Андромеды превратилась в большое поле битвы преступных группировок, а галактическая торговля и поставка ресурсов метрополиям осложняется космическим пиратством. В этот нелегкий переходный период в финансовом плане наблюдается особый напряг, и нахождение карты утерянных пиратских сокровищ сулит неплохую перспективу мгновенного решения всех проблем. И знаете, кто находит эту карту?
Дополнительная информация:
Релиз от Альянса Вольных Переводчиков.
Прямое продолжение фильма «Наши в Космосе» и очередное расширение Вселенной Космических Хулиганов.
Качество: DVDRip
Формат: AVI
Видео кодек: XviD
Аудио кодек: MP3
Видео: 720x400 (1.80:1), XviD MPEG-4, 2 117 kbps, 25.000 fps
Аудио: 48 kHz, MPEG Layer 3, 2 ch, ~192.00 kbps avg
Семпл
Nashi v kosmose s01e01
Nashi v kosmose s01e02
Nashi v kosmose s01e03
Nashi v kosmose s01e04
Внимание! Раздача ведётся путём добавления новых выпусков; при каждом добавлении создаётся новый торрент. Чтобы начать докачку нового выпуска, пользователям необходимо сделать следующее: (1) остановить скачивание, (2) удалить старый торрент у себя из клиента (старые серии удалять не надо), (3) скачать новый торрент и запустить его у себя в клиенте вместо старого, при этом указать клиенту путь в старую папку куда и должно происходить скачивание новых выпусков. Ваш клиент при этом должен произвести хеширование (проверку) старой папки (если не производит сам - помогите ему сделать это). В результате он будет докачивать только те выпуски, которых у Вас ещё нет. Старые выпуски при этом не удаляются, а продолжают раздаваться! Eсли Вы уже удалили старые выпуски, то предотвратить их повторную закачку можно, сняв галочки в соответствующих местах при запуске нового торрента. По возможности, желательно не удалять старые выпуски как можно дольше, чтобы релизёр не только продолжал раздавать старые выпуски, но и смог сконцентрироваться на новых.
Код: Выделить всё
General
Complete name                            : D:\фильмы-торр\Nashi v kosmose\Nashi v kosmose s01e01.avi
Format                                   : AVI
Format/Info                              : Audio Video Interleave
File size                                : 402 MiB
Duration                                 : 24mn 14s
Overall bit rate                         : 2 319 Kbps
Video
ID                                       : 0
Format                                   : MPEG-4 Visual
Format profile                           : Advanced Simple@L5
Format settings, BVOP                    : 2
Format settings, QPel                    : No
Format settings, GMC                     : No warppoints
Format settings, Matrix                  : Default (MPEG)
Codec ID                                 : XVID
Codec ID/Hint                            : XviD
Duration                                 : 24mn 14s
Bit rate                                 : 2 117 Kbps
Width                                    : 720 pixels
Height                                   : 400 pixels
Display aspect ratio                     : 16:9
Frame rate                               : 25.000 fps
Color space                              : YUV
Chroma subsampling                       : 4:2:0
Bit depth                                : 8 bits
Scan type                                : Progressive
Compression mode                         : Lossy
Bits/(Pixel*Frame)                       : 0.294
Stream size                              : 367 MiB (91%)
Writing library                          : XviD 73
Audio
ID                                       : 1
Format                                   : MPEG Audio
Format version                           : Version 1
Format profile                           : Layer 3
Codec ID                                 : 55
Codec ID/Hint                            : MP3
Duration                                 : 24mn 14s
Bit rate mode                            : Constant
Bit rate                                 : 192 Kbps
Channel(s)                               : 2 channels
Sampling rate                            : 48.0 KHz
Compression mode                         : Lossy
Stream size                              : 33.3 MiB (8%)
Alignment                                : Split accross interleaves
Interleave, duration                     : 40 ms (1.00 video frame)
Writing library                          : LAMELAME_MAJOR_VERSI
General
Complete name                            : D:\фильмы-торр\Nashi v kosmose\Nashi v kosmose s01e02.avi
Format                                   : AVI
Format/Info                              : Audio Video Interleave
File size                                : 370 MiB
Duration                                 : 21mn 51s
Overall bit rate                         : 2 366 Kbps
Video
ID                                       : 0
Format                                   : MPEG-4 Visual
Format profile                           : Advanced Simple@L5
Format settings, BVOP                    : 2
Format settings, QPel                    : No
Format settings, GMC                     : No warppoints
Format settings, Matrix                  : Default (MPEG)
Codec ID                                 : XVID
Codec ID/Hint                            : XviD
Duration                                 : 21mn 51s
Bit rate                                 : 2 165 Kbps
Width                                    : 720 pixels
Height                                   : 400 pixels
Display aspect ratio                     : 16:9
Frame rate                               : 25.000 fps
Color space                              : YUV
Chroma subsampling                       : 4:2:0
Bit depth                                : 8 bits
Scan type                                : Progressive
Compression mode                         : Lossy
Bits/(Pixel*Frame)                       : 0.301
Stream size                              : 338 MiB (91%)
Writing library                          : XviD 73
Audio
ID                                       : 1
Format                                   : MPEG Audio
Format version                           : Version 1
Format profile                           : Layer 3
Codec ID                                 : 55
Codec ID/Hint                            : MP3
Duration                                 : 21mn 51s
Bit rate mode                            : Constant
Bit rate                                 : 192 Kbps
Channel(s)                               : 2 channels
Sampling rate                            : 48.0 KHz
Compression mode                         : Lossy
Stream size                              : 30.0 MiB (8%)
Alignment                                : Split accross interleaves
Interleave, duration                     : 41 ms (1.03 video frame)
Writing library                          : LAMELAME_MAJOR_VERSI
General
Complete name                            : D:\___films\Nashi v kosmose\Nashi v kosmose s01e03.avi
Format                                   : AVI
Format/Info                              : Audio Video Interleave
File size                                : 448 MiB
Duration                                 : 27 min 24 s
Overall bit rate                         : 2 286 kb/s
Video
ID                                       : 0
Format                                   : MPEG-4 Visual
Format profile                           : Advanced Simple@L5
Format settings, BVOP                    : 2
Format settings, QPel                    : No
Format settings, GMC                     : No warppoints
Format settings, Matrix                  : Default (MPEG)
Codec ID                                 : XVID
Codec ID/Hint                            : XviD
Duration                                 : 27 min 24 s
Bit rate                                 : 2 085 kb/s
Width                                    : 720 pixels
Height                                   : 400 pixels
Display aspect ratio                     : 16:9
Frame rate                               : 23.976 (24000/1001) FPS
Color space                              : YUV
Chroma subsampling                       : 4:2:0
Bit depth                                : 8 bits
Scan type                                : Progressive
Compression mode                         : Lossy
Bits/(Pixel*Frame)                       : 0.302
Stream size                              : 409 MiB (91%)
Writing library                          : XviD 64
Audio
ID                                       : 1
Format                                   : MPEG Audio
Format version                           : Version 1
Format profile                           : Layer 3
Codec ID                                 : 55
Codec ID/Hint                            : MP3
Duration                                 : 27 min 24 s
Bit rate mode                            : Constant
Bit rate                                 : 192 kb/s
Channel(s)                               : 2 channels
Sampling rate                            : 48.0 kHz
Compression mode                         : Lossy
Stream size                              : 37.6 MiB (8%)
Alignment                                : Split accross interleaves
Interleave, duration                     : 42  ms (1.00 video frame)
Writing library                          : LAMELAME_MAJOR_VERSI
General
Complete name                    : E:\___фильмы\Nashi v kosmose s01e04.avi
Format                           : AVI
Format/Info                      : Audio Video Interleave
File size                        : 424 MiB
Duration                         : 25mn 50s
Overall bit rate                 : 2 292 Kbps
Video
ID                               : 0
Format                           : MPEG-4 Visual
Format profile                   : AdvancedSimple@L5
Format settings, BVOP            : Yes
Format settings, QPel            : No
Format settings, GMC             : No warppoints
Format settings, Matrix          : Default (MPEG)
Codec ID                         : XVID
Codec ID/Hint                    : XviD
Duration                         : 25mn 50s
Bit rate                         : 2 091 Kbps
Width                            : 720 pixels
Height                           : 400 pixels
Display aspect ratio             : 16:9
Frame rate                       : 23.976 fps
Resolution                       : 24 bits
Colorimetry                      : 4:2:0
Scan type                        : Progressive
Bits/(Pixel*Frame)               : 0.303
Stream size                      : 386 MiB (91%)
Writing library                  : XviD 64
Audio
ID                               : 1
Format                           : MPEG Audio
Format version                   : Version 1
Format profile                   : Layer 3
Codec ID                         : 55
Codec ID/Hint                    : MP3
Duration                         : 25mn 49s
Bit rate mode                    : Constant
Bit rate                         : 192 Kbps
Channel(s)                       : 2 channels
Sampling rate                    : 48.0 KHz
Resolution                       : 16 bits
Stream size                      : 35.5 MiB (8%)
Alignment                        : Split accross interleaves
Interleave, duration             : 42 ms (1.00 video frame)
Writing library                  : LAMELAME_MAJOR_VERSI
Релиз от:
 
Не забывайте говорить Спасибо. Не уходите с раздачи!   
Торрент: Зарегистрирован [21 янв 2018, 14:22] Скачать торрент
Скачать торрент
[ Размер 16.7 КБ / Просмотров 10 ]
Статус:
Проверен
 
.torrent скачан: 0 раз
Хэш: 336502bf9e5ff59ea62f14d9a2ddd4cba0055f80
Размер: 1.61 ГБ (1 723 566 834 байт)
Стать Автором раздачи
 
 
Раздал: 0 байт
Скачал: 0 байт
Ратио: Inf.
Сообщения: 487468
Зарегистрирован: 17 апр 2014, 13:57


  • Похожие торренты
    Ответы
    Просмотры
    Последнее сообщение

Вернуться в Фильмы со смешным переводом (пародии)

Ресурс не предоставляет электронные версии произведений, а занимается лишь коллекционированием и каталогизацией ссылок, присылаемых и публикуемых на форуме нашими читателями. Если вы являетесь правообладателем какого-либо представленного материала и не желаете чтобы ссылка на него находилась в нашем каталоге, свяжитесь с нами и мы незамедлительно удалим её. Файлы для обмена на трекере предоставлены пользователями сайта, и администрация не несёт ответственности за их содержание. Просьба не заливать файлы, защищенные авторскими правами, а также файлы нелегального содержания!
cron