Аннушка (1959) SATRip от New-Team

 
 Статистика раздачи 
Размер: 745.25 МБ   |  Зарегистрирован: 14 янв 2018, 12:46   |   .torrent скачан: 5 раз
Сидеров: 12  [ 0 байт/сек ]     Личеров: 4  [ 0 байт/сек ]  
  

Аннушка (1959) SATRip от New-Team

Сообщение Lester » 14 янв 2018, 12:46


Мы "В КОНТАКТЕ"


Страна: СССР
Производство: Мосфильм

Жанр: драма
Год выпуска: 1959
Продолжительность: 01:24:08

Перевод: Не требуется
Cубтитры: нет
Оригинальная аудиодорожка: русский

Режиссер: Борис Барнет, Георгий Натансон

В ролях:
Ирина Скобцева, Анастасия Георгиевская, Борис Бабочкин, Галина Токарева, Лев Барашков, Эдуард Марцевич, Ольга Аросева, Елена Королёва, Оля Малышева, Таня Малышева, Сережа Карнаухов, Паша Борискин, Таня Сергеева, Игорь Вольский...
Об актёрах подробней

Описание:
О русской женщине Анне Денисовой, перенесшей все тяготы Великой Отечественной войны, потерявшей мужа Петра, в трудные послевоенные годы вырастившей и воспитавшей своих троих детей: Сашу, Нину и Гранату. Редкая роль Ирины Скобцевой, где она играет не красивую светскую львицу, а простую русскую женщину. Первая работа в кино популярного певца 60-х годов Льва Барашкова.





Исходник: DVB
Качество видео: SATRip
Формат видео: AVI

Видео: 640х480 (4:3), 25 fps, XviD ~ 1101 kbps avg, 0.143 bit/pixel
Аудио: 48 kHz, MP3 2.0, 128 kbps

Раздача от:
Общее
Полное имя : Annushka.1959.SATRip-745_[New-team]_by_AVP_Studio.avi
Формат : AVI
Формат/Информация : Audio Video Interleave
Размер файла : 745 Мбайт
Продолжительность : 1 ч. 24 м.
Общий поток : 1238 Кбит/сек
Программа кодирования : VirtualDubMod 1.5.10.3 | www.virtualdub-fr.org || (build 2550/release)
Библиотека кодирования : VirtualDubMod build 2550/release

Видео
Идентификатор : 0
Формат : MPEG-4 Visual
Профиль формата : Advanced Simple@L5
Настройки формата : BVOP1 / Custom Matrix
Параметр BVOP формата : 1
Параметр QPel формата : Нет
Параметр GMC формата : Без точки перехода
Параметр матрицы формата : Выборочная
Идентификатор кодека : XVID
Идентификатор кодека/Подсказка : XviD
Продолжительность : 1 ч. 24 м.
Битрейт : 1101 Кбит/сек
Ширина : 640 пикселей
Высота : 480 пикселей
Соотношение сторон : 4:3
Частота кадров : 25,000 кадров/сек
Цветовое пространство : YUV
Субдискретизация насыщенности : 4:2:0
Битовая глубина : 8 бит
Тип развёртки : Прогрессивная
Метод сжатия : С потерями
Бит/(Пиксели*Кадры) : 0.143
Размер потока : 662 Мбайт (89%)
Библиотека кодирования : XviD 73

Аудио
Идентификатор : 1
Формат : MPEG Audio
Версия формата : Version 1
Профиль формата : Layer 3
Идентификатор кодека : 55
Идентификатор кодека/Подсказка : MP3
Продолжительность : 1 ч. 24 м.
Вид битрейта : Постоянный
Битрейт : 128 Кбит/сек
Каналы : 2 канала
Частота : 48,0 КГц
Частота кадров : 41,667 кадра/сек (1152 SPF)
Метод сжатия : С потерями
Размер потока : 77,0 Мбайт (10%)
Выравнивание : Соединение по промежуткам
Продолжительность промежутка : 40 мс. (1,00 видеокадр)
Время предзагрузки промежутка : 504 мс.
Библиотека кодирования : LAME3.99r
Настройки программы : -m s -V 4 -q 2 -lowpass 17 -b 128


 
Не забывайте говорить Спасибо. Не уходите с раздачи!   
Торрент: Зарегистрирован [14 янв 2018, 12:46] Для скачивания .torrent
необходима регистрация
Или скачать с помощью
MediaGet
Статус:
Проверен
 
.torrent скачан: 5 раз
Хэш: dadc35b40763cde605aa9586f678d6df106fd58c
Размер: 745.25 МБ (781 453 312 байт)
Стать Автором раздачи
 
 
Раздал: 100 ГБ
Скачал: 0 байт
Ратио: Seed.
Сообщения: 113140
Зарегистрирован: 09 апр 2015, 23:00


  • Похожие торренты
    Ответы
    Просмотры
    Последнее сообщение

Вернуться в Кино СССР, Советской России, Российской республики (1917-1991)

Ресурс не предоставляет электронные версии произведений, а занимается лишь коллекционированием и каталогизацией ссылок, присылаемых и публикуемых на форуме нашими читателями. Если вы являетесь правообладателем какого-либо представленного материала и не желаете чтобы ссылка на него находилась в нашем каталоге, свяжитесь с нами и мы незамедлительно удалим её. Файлы для обмена на трекере предоставлены пользователями сайта, и администрация не несёт ответственности за их содержание. Просьба не заливать файлы, защищенные авторскими правами, а также файлы нелегального содержания!
cron