Черные береты (Виктор Доценко) [1994, боевик, приключения, SATRip]

 
 Статистика раздачи 
Размер: 1.09 ГБ   |  Зарегистрирован: 14 янв 2018, 12:19   |   .torrent скачан: 0 раз
Сидеров: 1  [ 0 байт/сек ]     Личеров: 0  [ 0 байт/сек ]  
  

Черные береты (Виктор Доценко) [1994, боевик, приключения, SATRip]

Сообщение Nakazhu » 14 янв 2018, 12:23

Черные береты
Жанр: Боевик, приключения
Год выпуска: 1994
Продолжительность: 01:09:29
Режиссёр: Виктор Доценко
В ролях: Василий Шлыков, Надежда Бутырцева, Иван Мартынов, Сергей Гурьев, Владимир Яковлев, Игорь Ильин, Ментай Утепбергенов, Владимир Аникин, Руслан Хабиев, Игорь Муругов, Владимир Новиков, Виктория Азер, Нина Агапова, Владимир Нисков, Андрей Щербович-Вечер, Роман Цветов, Вячеслав Родин, Владимир Шевяков, Лидия Леликова
Описание: По мотивам повести Станислава Гагарина "Парни из морской пехоты". Действие фильма происходит в Севастополе в конце 80-х годов ХХ века. Морские пехотинцы - капитан Ячменев, Федор, Иван и Арвид - демобилизовались из армии. Прежде чем разъехаться по своим родным городам, четверо друзей решили совершить прогулку на теплоходе. Неожиданно гражданское судно захватили террористы, которые собрались переправить большую партию оружия за границу. Отлично подготовленные морские пехотинцы вступили в бой с целой бандой преступников...
Доп. информация:
Автор релиза -
Источник аудио и видео для рипа - моя запись с т/к Звезда - http://rutracker.org/forum/viewtopic.php?t=5506746



Сэмпл: https://yadi.sk/i/qT6grYNM3RRzaZ
Рекламы нет!
Качество видео: SATRip
Формат видео: AVI
Видео: XviD, 704x448 (16:10), 25.000 fps, 2037 kbps, 0.258 bit/pixel
Аудио: Русский AC3, 48000 Гц, 2ch, 192 kbps
Код: Выделить всё
Общее
Полное имя                               : D:\Чёрные.Береты.1994.SATRip.Звезда-ylnian.avi
Формат                                   : AVI
Формат/Информация                        : Audio Video Interleave
Размер файла                             : 1,09 Гбайт
Продолжительность                        : 1 ч. 9 м.
Общий поток                              : 2239 Кбит/сек
Программа кодирования                    : VirtualDubMod 1.5.10.2 (build 2540/release)
Библиотека кодирования                   : VirtualDubMod build 2540/release
Видео
Идентификатор                            : 0
Формат                                   : MPEG-4 Visual
Профиль формата                          : Advanced Simple@L5
Настройки формата                        : BVOP1
Параметр BVOP формата                    : 1
Параметр QPel формата                    : Нет
Параметр GMC формата                     : Без точки перехода
Параметр матрицы формата                 : Default (MPEG)
Идентификатор кодека                     : XVID
Идентификатор кодека/Подсказка           : XviD
Продолжительность                        : 1 ч. 9 м.
Битрейт                                  : 2037 Кбит/сек
Ширина                                   : 704 пикселя
Высота                                   : 448 пикселей
Соотношение сторон                       : 16:10
Частота кадров                           : 25,000 кадров/сек
Цветовое пространство                    : YUV
Субдискретизация насыщенности            : 4:2:0
Битовая глубина                          : 8 бит
Тип развёртки                            : Прогрессивная
Метод сжатия                             : С потерями
Бит/(Пиксели*Кадры)                      : 0.258
Размер потока                            : 1012 Мбайт (91%)
Библиотека кодирования                   : XviD 67
Аудио
Идентификатор                            : 1
Формат                                   : AC-3
Формат/Информация                        : Audio Coding 3
Идентификатор кодека                     : 2000
Продолжительность                        : 1 ч. 9 м.
Вид битрейта                             : Постоянный
Битрейт                                  : 192 Кбит/сек
Каналы                                   : 2 канала
Расположение каналов                     : Front: L R
Частота                                  : 48,0 КГц
Частота кадров                           : 31,250 кадров/сек (1536 SPF)
Битовая глубина                          : 16 бит
Метод сжатия                             : С потерями
Размер потока                            : 95,4 Мбайт (9%)
Выравнивание                             : Разделение по промежуткам
Продолжительность промежутка             : 40  мс. (1,00 видеокадр)
Время предзагрузки промежутка            : 500  мс.
ServiceKind/String                       : Complete Main
Сравнение скриншотов с SATRip 7 канал - http://screenshotcomparison.com/comparison/128993 - в моём релизе больше полезная площадь кадра, лучше качество
 
Не забывайте говорить Спасибо. Не уходите с раздачи!   
Торрент: Зарегистрирован [14 янв 2018, 12:19] Для скачивания .torrent
необходима регистрация
Или скачать с помощью
MediaGet
Статус:
Проверен
 
.torrent скачан: 0 раз
Хэш: 1ce4311c236d0c383ac1d4fd4291ac7736111de9
Размер: 1.09 ГБ (1 166 551 040 байт)
Стать Автором раздачи
 
 
Раздал: 0 байт
Скачал: 0 байт
Ратио: Inf.
Сообщения: 439074
Зарегистрирован: 17 апр 2014, 13:57


  • Похожие торренты
    Ответы
    Просмотры
    Последнее сообщение

Вернуться в Отечественные фильмы 1992-2000 года

Ресурс не предоставляет электронные версии произведений, а занимается лишь коллекционированием и каталогизацией ссылок, присылаемых и публикуемых на форуме нашими читателями. Если вы являетесь правообладателем какого-либо представленного материала и не желаете чтобы ссылка на него находилась в нашем каталоге, свяжитесь с нами и мы незамедлительно удалим её. Файлы для обмена на трекере предоставлены пользователями сайта, и администрация не несёт ответственности за их содержание. Просьба не заливать файлы, защищенные авторскими правами, а также файлы нелегального содержания!
cron