Заложница (1990) DVDRip-AVC от KORSAR

 
 Статистика раздачи 
Размер: 2.19 ГБ   |  Зарегистрирован: 14 янв 2018, 11:21   |   .torrent скачан: 0 раз
Сидеров: 1  [ 0 байт/сек ]     Личеров: 0  [ 0 байт/сек ]  
  

Заложница (1990) DVDRip-AVC от KORSAR

Сообщение Lester » 14 янв 2018, 11:22

Заложница


Год выхода: 1990
Жанр: Драма, мелодрама
Выпущено: Одесская киностудия, СССР
Продолжительность: 01:26:10
Перевод: Не требуется

Режиссёр: Сергей Ашкенази
В ролях: Александра Захарова, Альгис Матуленис, Юрий Кузьменков, Александр Яковлев, Янислав Левинзон, Михаил Чигарев, Владимир Маренников, А. Игнатович, Юрий Волович, Виктор Соловьёв.

О фильме: Бежавший из колонии преступник захватывает в качестве заложницы девушку и вместе с ней направляется к границе. Но пока милиция не успокоится, он решает на какое-то время затаиться в охотничьем домике, находящемся в горной лощине. Проходит время - и девушка начинает видеть в нём не преступника, а отчаявшегося близкого человека. Но милиция неумолимо идет по следу...



Кодек: х264
Качество: DVDRip-AVC
Видео: MPEG-4 AVC, 692х574@738x574, 25 fps, 3000 Кбит/с
Аудио 2: AC3, 6 ch, 448 Кбит/с, AC3, 2 ch, 192 Кбит/с


x264 [info]: frame I:662 Avg QP:17.71 size: 77058
x264 [info]: frame P:33238 Avg QP:20.27 size: 33295
x264 [info]: frame B:95351 Avg QP:21.85 size: 8191

Общее
Уникальный идентификатор : 209875653297866848699664134723742392807 (0x9DE4949D82B05CDDAA31DF45BDB6E1E7)
Полное имя : E:Мои рипыЗаложница 1990_DVD-AVC_KORSAR.mkv
Формат : Matroska
Версия формата : Version 2
Размер файла : 2,19 Гбайт
Продолжительность : 1 ч. 26 м.
Общий поток : 3642 Кбит/сек
Дата кодирования : UTC 2018-01-13 06:58:57
Программа кодирования : mkvmerge v5.8.0 ('No Sleep / Pillow') built on Sep 2 2012 15:37:04
Библиотека кодирования : libebml v1.2.3 + libmatroska v1.3.0

Видео
Идентификатор : 1
Формат : AVC
Формат/Информация : Advanced Video Codec
Профиль формата : High@L4.1
Настройки формата : CABAC / 16 Ref Frames
Параметр CABAC формата : Да
Параметр RefFrames формата : 16 кадров
Идентификатор кодека : V_MPEG4/ISO/AVC
Продолжительность : 1 ч. 26 м.
Битрейт : 3000 Кбит/сек
Ширина : 692 пикселя
Высота : 574 пикселя
Соотношение сторон : 1,286
Режим частоты кадров : Постоянный
Частота кадров : 25,000 кадров/сек
Цветовое пространство : YUV
Субдискретизация насыщенности : 4:2:0
Битовая глубина : 8 бит
Тип развёртки : Прогрессивная
Бит/(Пиксели*Кадры) : 0.302
Размер потока : 1,76 Гбайт (80%)
Библиотека кодирования : x264 core 152 r2851kMod ba24899
Настройки программы : cabac=1 / ref=16 / deblock=1:-2:-1 / analyse=0x3:0x133 / me=umh / subme=11 / psy=1 / fade_compensate=0.00 / psy_rd=1.05:0.10 / mixed_ref=1 / me_range=48 / chroma_me=1 / trellis=2 / 8x8dct=1 / cqm=0 / deadzone=21,11 / fast_pskip=0 / chroma_qp_offset=-3 / threads=12 / lookahead_threads=2 / sliced_threads=0 / nr=0 / decimate=0 / interlaced=0 / bluray_compat=0 / constrained_intra=0 / bframes=8 / b_pyramid=2 / b_adapt=2 / b_bias=0 / direct=3 / weightb=1 / open_gop=0 / weightp=2 / keyint=250 / keyint_min=25 / scenecut=40 / intra_refresh=0 / rc_lookahead=40 / rc=2pass / mbtree=0 / bitrate=3000 / ratetol=1.0 / qcomp=0.60 / qpmin=0 / qpmax=39 / qpstep=4 / cplxblur=20.0 / qblur=0.5 / vbv_maxrate=50000 / vbv_bufsize=62500 / nal_hrd=none / filler=0 / ip_ratio=1.25 / pb_ratio=1.30 / aq=1:0.90
Язык : English
Default : Да
Forced : Нет
Цветовой диапазон : Limited
Основные цвета : BT.601 PAL
Характеристики трансфера : BT.470 System B, BT.470 System G
Коэффициенты матрицы : BT.470 System B, BT.470 System G

Аудио #1
Идентификатор : 2
Формат : AC-3
Формат/Информация : Audio Coding 3
Параметр Endianness формата : Big
Идентификатор кодека : A_AC3
Продолжительность : 1 ч. 26 м.
Вид битрейта : Постоянный
Битрейт : 448 Кбит/сек
Каналы : 6 каналов
Расположение каналов : Front: L C R, Side: L R, LFE
Частота : 48,0 КГц
Частота кадров : 31,250 кадров/сек (1536 SPF)
Битовая глубина : 16 бит
Метод сжатия : С потерями
Размер потока : 276 Мбайт (12%)
Default : Да
Forced : Нет

Аудио #2
Идентификатор : 3
Формат : AC-3
Формат/Информация : Audio Coding 3
Параметр Endianness формата : Big
Идентификатор кодека : A_AC3
Продолжительность : 1 ч. 26 м.
Вид битрейта : Постоянный
Битрейт : 192 Кбит/сек
Каналы : 2 канала
Расположение каналов : Front: L R
Частота : 48,0 КГц
Частота кадров : 31,250 кадров/сек (1536 SPF)
Битовая глубина : 16 бит
Метод сжатия : С потерями
Размер потока : 118 Мбайт (5%)
Default : Нет
Forced : Нет



 
Не забывайте говорить Спасибо. Не уходите с раздачи!   
Торрент: Зарегистрирован [14 янв 2018, 11:21] Для скачивания .torrent
необходима регистрация
Или скачать с помощью
MediaGet
Статус:
Проверен
 
.torrent скачан: 0 раз
Хэш: 5ea94c55730b64d12c2cbae31953ae30f4b28b8b
Размер: 2.19 ГБ (2 353 657 744 байт)
Стать Автором раздачи
 
 
Раздал: 100 ГБ
Скачал: 0 байт
Ратио: Seed.
Сообщения: 117960
Зарегистрирован: 09 апр 2015, 23:00


  • Похожие торренты
    Ответы
    Просмотры
    Последнее сообщение

Вернуться в Кино СССР, Советской России, Российской республики (1917-1991)

Ресурс не предоставляет электронные версии произведений, а занимается лишь коллекционированием и каталогизацией ссылок, присылаемых и публикуемых на форуме нашими читателями. Если вы являетесь правообладателем какого-либо представленного материала и не желаете чтобы ссылка на него находилась в нашем каталоге, свяжитесь с нами и мы незамедлительно удалим её. Файлы для обмена на трекере предоставлены пользователями сайта, и администрация не несёт ответственности за их содержание. Просьба не заливать файлы, защищенные авторскими правами, а также файлы нелегального содержания!
cron