Дженнифер 8 / Jennifer Eight (Брюс Робинсон / Bruce Robinson) [1992, США, триллер, драма, криминал, детектив, VHSRip] [Full Screen] AVO (Леонид Володарский)

 
 Статистика раздачи 
Размер: 1.46 ГБ   |  Зарегистрирован: 14 янв 2018, 10:41   |   .torrent скачан: 0 раз
Сидеров: 1  [ 0 байт/сек ]     Личеров: 0  [ 0 байт/сек ]  
  

Дженнифер 8 / Jennifer Eight (Брюс Робинсон / Bruce Robinson) [1992, США, триллер, драма, криминал, детектив, VHSRip] [Full Screen] AVO (Леонид Володарский)

Сообщение Nakazhu » 14 янв 2018, 10:41

Дженнифер 8 / Jennifer Eight
[Full Screen]
«On the trail of a serial killer, Detective John Berlin has no clues. No suspects. And no alibi»
Страна: США
Жанр: триллер, драма, криминал, детектив
Год выпуска: 1992
Продолжительность: 02:05:52
Перевод: Авторский (одноголосый закадровый) Леонид Володарский
Субтитры: нет
Режиссер: Брюс Робинсон / Bruce Robinson
В ролях: Энди Гарсиа, Ума Турман, Лэнс Хенриксен, Кэти Бейкер, Грэм Беккел, Кевин Конуэй, Джон Малкович, Ленни Фон Долен, Пол Бэйтс, Перри Лэнг, Николас Лав, Брайан Ларкин, Майкл О'Нейлл, Роберт Гантон
Описание: У детектива Джона Берлина, идущего по следу серийного убийцы, нет ни улик, ни подозреваемых. И нет алиби. Уставший от напряженного ритма «каменных джунглей», приходящий в себя после неудачного брака, только излечившийся от алкоголизма лос-анжелесский полицейский Джон Берлин решает сменить обстановку.
Он принимает приглашение своего друга и коллеги и приезжает в маленький городок на севере Калифорнии. Но вместо желанной тихой сельской жизни Джону приходится включиться в поиски серийного убийцы, чьими жертвами стали семь молоденьких слепых девушек.
Доп. информация: Оцифровка VHS (личный архив) и получение VHSRip alenavova
Эксклюзив для rutracker.org. При размещении данного релиза на других сайтах ссылка на автора alenavova обязательна
Релиз
Сэмпл: https://yadi.sk/i/8sVM2Mvs3RS67m
Качество видео: VHSRip
Формат видео: AVI
Видео: 704x528 (1.33:1), 25 fps, XviD build 73 ~1464 kbps avg, 0.16 bit/pixel
Аудио: 48 kHz, AC3 Dolby Digital, 2/0 (L,R) ch, ~192 kbps
Код: Выделить всё
Дженнифер-8 - Jennifer Eight (by alenavova).avi
Format                      : AVI
Format/Info                 : Audio Video Interleave
File size                   : 1.46 GiB
Duration                    : 2 h 5 min
Overall bit rate            : 1 666 kb/s
Movie name                  : Дженнифер-8 - Jennifer Eight (by alenavova)
Director                    : by alenavova
Writing application         : VirtualDubMod 1.5.10.3 | www.virtualdub-fr.org || (build 2550/release)
Copyright                   : Edich2
Comment                     : RuTracker.org
Video
ID                          : 0
Format                      : MPEG-4 Visual
Format profile              : Advanced Simple@L5
Format settings, BVOP       : 2
Format settings, QPel       : No
Format settings, GMC        : No warppoints
Format settings, Matrix     : Custom
Codec ID                    : XVID
Codec ID/Hint               : XviD
Duration                    : 2 h 5 min
Bit rate                    : 1 465 kb/s
Width                       : 704 pixels
Height                      : 528 pixels
Display aspect ratio        : 4:3
Frame rate                  : 25.000 FPS
Color space                 : YUV
Chroma subsampling          : 4:2:0
Bit depth                   : 8 bits
Scan type                   : Progressive
Compression mode            : Lossy
Bits/(Pixel*Frame)          : 0.158
Stream size                 : 1.29 GiB (88%)
Writing library             : XviD 73
Audio
ID                          : 1
Format                      : AC-3
Format/Info                 : Audio Coding 3
Format settings, Endianness : Big
Codec ID                    : 2000
Duration                    : 2 h 5 min
Bit rate mode               : Constant
Bit rate                    : 192 kb/s
Channel(s)                  : 2 channels
Channel positions           : Front: L R
Sampling rate               : 48.0 kHz
Frame rate                  : 31.250 FPS (1536 spf)
Bit depth                   : 16 bits
Compression mode            : Lossy
Stream size                 : 173 MiB (12%)
Alignment                   : Split accross interleaves
Interleave, duration        : 40  ms (1.00 video frame)
Interleave, preload duratio : 500  ms
Service kind                : Complete Main

 
Не забывайте говорить Спасибо. Не уходите с раздачи!   
Торрент: Зарегистрирован [14 янв 2018, 10:41] Для скачивания .torrent
необходима регистрация
Или скачать с помощью
MediaGet
Статус:
Проверен
 
.torrent скачан: 0 раз
Хэш: 0f46883015c6f70c90d155a1d7953b8d4736848e
Размер: 1.46 ГБ (1 573 003 264 байт)
Стать Автором раздачи
 
 
Раздал: 0 байт
Скачал: 0 байт
Ратио: Inf.
Сообщения: 379648
Зарегистрирован: 17 апр 2014, 13:57


  • Похожие торренты
    Ответы
    Просмотры
    Последнее сообщение

Вернуться в Зарубежные фильмы 1991-2000

Ресурс не предоставляет электронные версии произведений, а занимается лишь коллекционированием и каталогизацией ссылок, присылаемых и публикуемых на форуме нашими читателями. Если вы являетесь правообладателем какого-либо представленного материала и не желаете чтобы ссылка на него находилась в нашем каталоге, свяжитесь с нами и мы незамедлительно удалим её. Файлы для обмена на трекере предоставлены пользователями сайта, и администрация не несёт ответственности за их содержание. Просьба не заливать файлы, защищенные авторскими правами, а также файлы нелегального содержания!
cron