Опасный полет / Опасен полет / Opasen polet (Димитр Петров / Димитър Петров / Dimitar Petrov) [1968, Болгария, шпионский фильм, Screener > DVD] [Советская прокатная копия] Dub (Горького)

 
 Статистика раздачи 
Размер: 1.88 ГБ   |  Зарегистрирован: 14 янв 2018, 10:39   |   .torrent скачан: 0 раз
Сидеров: 1  [ 0 байт/сек ]     Личеров: 0  [ 0 байт/сек ]  
  

Опасный полет / Опасен полет / Opasen polet (Димитр Петров / Димитър Петров / Dimitar Petrov) [1968, Болгария, шпионский фильм, Screener > DVD] [Советская прокатная копия] Dub (Горького)

Сообщение Nakazhu » 14 янв 2018, 10:39

Опасный полет / Опасен полет / Opasen polet [Советская прокатная копия]
Страна: Болгария
Жанр: шпионский фильм
Год выпуска: 1968
Продолжительность: 01:08:35
Перевод: Профессиональный (дублированный) - Киностудия им. Горького
Субтитры: нет
Режиссер: Димитр Петров / Димитър Петров / Dimitar Petrov
В ролях: Невена Коканова, Георги Черкелов, Петр Слабаков, Светослав Пеев, Богомил Симеонов, Найчо Петров, Преслав Петров, Любомир Киселички, Вессела Радоева, Георги Джубрилов, Юрий Яковлев, Ани Спасова...
| Релиз:
Описание: По сведениям разведки в Болгарию должен прибыть иностранный агент. Его надо выследить и обезвредить. Американский резидент ЦРУ Джордж Андерсон едет на своей машине транзитом Стамбул – Вена. На границе с Болгарией его уже ждут. Андерсен направляется в Софию. По пути в столицу его плотно опекают болгарские разведчики. Они хотят выяснить, к кому и зачем едет американский резидент. Матерый разведчик в Софии встречается с доктором Белчевой, за которой давно уже следила болгарская разведка…
Семпл: http://sendfile.su/1391224
Тип релиза: Screener
Контейнер: DVD-Video
Видео: PAL 720x576 (4:3) @ 768x576, 25.000 fps, MPEG-2 Video, ~3584 Kbps, 0.346 bits/pixel
Аудио: Русский, 48.0 KHz, AC3, 2 ch, 256 Kbps
Код: Выделить всё
Title: Опасный полёт 1968 Dub Горького
Size: 1.88 Gb ( 1 969 580,00 KBytes ) - DVD-5
Enabled regions: 1, 2, 3, 4, 5, 6, 7, 8
VTS_01 :
  Play Length: 01:08:35
  Video: PAL 4:3 (720x576) VBR
  Audio:
      Russian, AC3, 2/0 (L,R) ch, 256 kbps, Delay 0 mSec
Код: Выделить всё
General
Complete name                            : \Опасный полёт 1968 Dub Горького\VIDEO_TS\VTS_01_1.VOB
Format                                   : MPEG-PS
File size                                : 1 024 MiB
Duration                                 : 36 min 32 s
Overall bit rate mode                    : Variable
Overall bit rate                         : 3 918 kb/s
Video
ID                                       : 224 (0xE0)
Format                                   : MPEG Video
Format version                           : Version 2
Format profile                           : Main@Main
Format settings                          : CustomMatrix / BVOP
Format settings, BVOP                    : Yes
Format settings, Matrix                  : Custom
Format settings, GOP                     : Variable
Format settings, picture structure       : Frame
Duration                                 : 36 min 32 s
Bit rate mode                            : Variable
Bit rate                                 : 3 584 kb/s
Maximum bit rate                         : 9 500 kb/s
Width                                    : 720 pixels
Height                                   : 576 pixels
Display aspect ratio                     : 4:3
Frame rate                               : 25.000 FPS
Standard                                 : PAL
Color space                              : YUV
Chroma subsampling                       : 4:2:0
Bit depth                                : 8 bits
Scan type                                : Interlaced
Scan order                               : Top Field First
Compression mode                         : Lossy
Bits/(Pixel*Frame)                       : 0.346
Time code of first frame                 : 00:00:00:00
Time code source                         : Group of pictures header
GOP, Open/Closed                         : Open
GOP, Open/Closed of first frame          : Closed
Stream size                              : 937 MiB (91%)
Audio
ID                                       : 189 (0xBD)-128 (0x80)
Format                                   : AC-3
Format/Info                              : Audio Coding 3
Format settings, Endianness              : Big
Muxing mode                              : DVD-Video
Duration                                 : 36 min 32 s
Bit rate mode                            : Constant
Bit rate                                 : 256 kb/s
Channel(s)                               : 2 channels
Channel positions                        : Front: L R
Sampling rate                            : 48.0 kHz
Frame rate                               : 31.250 FPS (1536 SPF)
Bit depth                                : 16 bits
Compression mode                         : Lossy
Stream size                              : 66.9 MiB (7%)
Service kind                             : Complete Main
Menu
 
Не забывайте говорить Спасибо. Не уходите с раздачи!   
Торрент: Зарегистрирован [14 янв 2018, 10:39] Скачать торрент
Скачать торрент
[ Размер 19.54 КБ / Просмотров 14 ]
Статус:
Проверен
 
.torrent скачан: 0 раз
Хэш: fefdf2d49b9c7591af39e8086bbc8294d92324b1
Размер: 1.88 ГБ (2 016 849 920 байт)
Стать Автором раздачи
 
 
Раздал: 0 байт
Скачал: 0 байт
Ратио: Inf.
Сообщения: 487468
Зарегистрирован: 17 апр 2014, 13:57


  • Похожие торренты
    Ответы
    Просмотры
    Последнее сообщение

Вернуться в Зарубежное кино

Ресурс не предоставляет электронные версии произведений, а занимается лишь коллекционированием и каталогизацией ссылок, присылаемых и публикуемых на форуме нашими читателями. Если вы являетесь правообладателем какого-либо представленного материала и не желаете чтобы ссылка на него находилась в нашем каталоге, свяжитесь с нами и мы незамедлительно удалим её. Файлы для обмена на трекере предоставлены пользователями сайта, и администрация не несёт ответственности за их содержание. Просьба не заливать файлы, защищенные авторскими правами, а также файлы нелегального содержания!
cron