Девушка с косой (2017) WEB-DLRip-AVC от ExKinoRay | iTunes

 
 Статистика раздачи 
Размер: 745.62 МБ   |  Зарегистрирован: 14 янв 2018, 09:59   |   .torrent скачан: 1569 раз
Сидеров: 552  [ 0 байт/сек ]     Личеров: 26  [ 0 байт/сек ]  
  

Девушка с косой (2017) WEB-DLRip-AVC от ExKinoRay | iTunes

Сообщение Lester » 14 янв 2018, 10:00

Информация о фильме
Название: Девушка с косой
Год выхода: 2017
Жанр: Комедия
Режиссер: Ольга Попова
В ролях: Александра Урсуляк, Виктор Добронравов, Федор Добронравов, Ирина Чериченко, Марк Богатырев, Олег Гаас, Полина Ауг, Нина Дворжецкая, Дарья Мингазетдинова, Полина Стремоусова

О фильме :
Заснеженным московским вечером красивая девушка в черном, длинном балахоне и с косой идет за очередной жертвой. В эту предновогоднюю ночь по адресу: улице Заморенова, дом 48 - человек отправиться в вечное путешествие в загробный мир. Однако жильцы дома не подозревают об неожиданном сюрпризе и все в экстренном порядке готовятся к празднованию торжества. У каждого свои проблемы, кто-то не успел закончить дела в этом году и не хочет отлаживать их на следующий, кто-то ищет подарок под елку, а у кого-то семейные разборки.



Страна: Россия
Студия: Кинокомпания «100фильм»
Продолжительность: 01:26:08
Язык: Русский | iTunes

Файл
Формат: MKV
Качество: WEB-DLRip-AVC
Видео: MPEG-4 AVC, 752x424, ~ 1133 Кбит/с
Аудио: AAC-LC, 2 ch, ~ 76 Кбит/с
Общее
Уникальный идентификатор : 11791174854738888294155218671157812952 (0x8DEE5CDE996C54EC6AC724326B69ED8)
Полное имя : D:MOVIESDevushka.s.kosoj.2017.ExKinoRay.mkv
Формат : Matroska
Версия формата : Version 2
Размер файла : 746 Мбайт
Продолжительность : 1 ч. 26 м.
Общий поток : 1210 Кбит/сек
Дата кодирования : UTC 2018-01-13 22:03:33
Программа кодирования : mkvmerge v19.0.0 ('Brave Captain') 64-bit
Библиотека кодирования : libebml v1.3.5 + libmatroska v1.4.8

Видео
Идентификатор : 1
Формат : AVC
Формат/Информация : Advanced Video Codec
Профиль формата : High@L4.1
Параметр CABAC формата : Да
Параметр RefFrames формата : 10 кадров
Идентификатор кодека : V_MPEG4/ISO/AVC
Продолжительность : 1 ч. 26 м.
Битрейт : 1133 Кбит/сек
Ширина : 752 пикселя
Высота : 424 пикселя
Соотношение сторон : 16:9
Режим частоты кадров : Постоянный
Частота кадров : 25,000 кадров/сек
Цветовое пространство : YUV
Субдискретизация насыщенности : 4:2:0
Битовая глубина : 8 бит
Тип развёртки : Прогрессивная
Бит/(Пиксели*Кадры) : 0.142
Размер потока : 697 Мбайт (94%)
Библиотека кодирования : x264 core 152 r2851kMod ba24899
Настройки программы : cabac=1 / ref=10 / deblock=1:-3:-3 / analyse=0x3:0x133 / me=umh / subme=11 / psy=1 / fade_compensate=0.00 / psy_rd=1.00:0.10 / mixed_ref=1 / me_range=32 / chroma_me=1 / trellis=2 / 8x8dct=1 / cqm=0 / deadzone=21,11 / fast_pskip=0 / chroma_qp_offset=-3 / threads=6 / lookahead_threads=1 / sliced_threads=0 / nr=0 / decimate=0 / interlaced=0 / bluray_compat=0 / constrained_intra=0 / bframes=10 / b_pyramid=2 / b_adapt=2 / b_bias=0 / direct=3 / weightb=1 / open_gop=0 / weightp=2 / keyint=250 / keyint_min=24 / scenecut=40 / intra_refresh=0 / rc_lookahead=40 / rc=2pass / mbtree=1 / bitrate=1133 / ratetol=1.0 / qcomp=0.60 / qpmin=0 / qpmax=69 / qpstep=4 / cplxblur=20.0 / qblur=0.5 / vbv_maxrate=50000 / vbv_bufsize=62500 / nal_hrd=none / filler=0 / ip_ratio=1.40 / aq=3:1.00
Default : Да
Forced : Нет

Аудио
Идентификатор : 2
Формат : AAC
Формат/Информация : Advanced Audio Codec
Профиль формата : LC
Идентификатор кодека : A_AAC
Продолжительность : 1 ч. 26 м.
Битрейт : 76,0 Кбит/сек
Каналы : 2 канала
Расположение каналов : Front: L R
Частота : 48,0 КГц
Частота кадров : 46,875 кадров/сек (1024 SPF)
Метод сжатия : С потерями
Задержка видео : 9 мс.
Размер потока : 46,8 Мбайт (6%)
Язык : Russian
Default : Да
Forced : Нет



Релиз от:
 
Не забывайте говорить Спасибо. Не уходите с раздачи!   
Торрент: Зарегистрирован [14 янв 2018, 09:59] Для скачивания .torrent
необходима регистрация
Или скачать с помощью
MediaGet
Статус:
Проверен
 
.torrent скачан: 1569 раз
Хэш: 8c7867471d89f53e03a4a08f74160760118121a8
Размер: 745.62 МБ (781 840 161 байт)
Стать Автором раздачи
 
 
Раздал: 100 ГБ
Скачал: 0 байт
Ратио: Seed.
Сообщения: 109535
Зарегистрирован: 09 апр 2015, 23:00


  • Похожие торренты
    Ответы
    Просмотры
    Последнее сообщение

Вернуться в Отечественное кино

Ресурс не предоставляет электронные версии произведений, а занимается лишь коллекционированием и каталогизацией ссылок, присылаемых и публикуемых на форуме нашими читателями. Если вы являетесь правообладателем какого-либо представленного материала и не желаете чтобы ссылка на него находилась в нашем каталоге, свяжитесь с нами и мы незамедлительно удалим её. Файлы для обмена на трекере предоставлены пользователями сайта, и администрация не несёт ответственности за их содержание. Просьба не заливать файлы, защищенные авторскими правами, а также файлы нелегального содержания!
cron