Оранжевые дни / Días color naranja (Пабло Ллорка / Pablo Llorca) [2016, Испания, мелодрама, DVDRip-AVC] + Sub Rus

 
 Статистика раздачи 
Размер: 1.42 ГБ   |  Зарегистрирован: 14 янв 2018, 07:49   |   .torrent скачан: 0 раз
Сидеров: 1  [ 0 байт/сек ]     Личеров: 0  [ 0 байт/сек ]  
  

Оранжевые дни / Días color naranja (Пабло Ллорка / Pablo Llorca) [2016, Испания, мелодрама, DVDRip-AVC] + Sub Rus

Сообщение Nakazhu » 14 янв 2018, 07:49

Оранжевые дни / Días color naranja
Страна: Испания
Жанр: мелодрама
Год выпуска: 2016
Продолжительность: 01:16:37
Перевод: Субтитры
Субтитры: русские
Оригинальная аудиодорожка: английский, испанский, французский
Режиссер: Пабло Ллорка / Pablo Llorca
В ролях: Луиш Мигель Синтра/Luís Miguel Cintra, Анни Кей Дальстрём/Annie Kay Dählstrom, Хорхе Ферер/Jorge Ferrer, Астрид Менасанш/Astrid Menasanch
Описание: «Если современные туристы – это христианские паломники прошлого, то будущее за движением вне туристической логики и маршрутов. И это будет движение тех, кто смотрит не в окно поезда, а в книгу, которая неожиданно связывает попутчиков и которая всегда и есть настоящее путешествие».
Лучшие фильмы 2017 года | Олег Горяинов. Кино – это праздник / Кино – это стена«Дорогой Пабло!
<…>Когда большинство режиссёров полуобморочно трясётся над каждым кадром, сражаясь за его выразительность как за экономическую эффективность, ты не боишься ослабить контроль, дать свободу изображениям. Твои сцены звучат на чистом разговорном языке, их цель – лишь необходимое и повседневное. Дочитать книгу Диккенса. Доехать из Афин в Барселону. Случайно влюбиться в попутчицу. Вдруг отпадает необходимость ежеминутно демонстрировать свою виртуозность, незачем втискивать в любой отрезок фильма весь его смысл, не нужно атаковать зрителя всевозможными средствами и по всем фронтам. Достаточно прислушаться к шёпоту городов, чтобы сочинить рассказ. Достаточно заглянуть в гости к Луишу Мигелю Синтре, чтобы очутиться в самом сердце истории XX века.
Из брехтианцев кинематографа, ты – самый неправильный. Покуда другие практикуют строгую аскезу только ради того, чтобы затем, сжав натруженный кулак, побольнее ударить, врага ли, или просто подвернувшегося под руку зрителя, ты умеешь радовать и радоваться. Самоограничение и строгость необходимы тебе не в военных целях, но выходят из твоих рук как условие нежности. Редчайший случай доверия и участливости к зрителю, персонажам, местам. Формальная же бедность "Оранжевых дней" – лишь обратная сторона их пылкого темперамента, в любое мгновение готового взорваться проявлениями руисовского абсурда и едва ли не кадрами перезрелой феллиниевской пошлости».
Лучшие фильмы 2017 года | Максим Селезнёв. Фантазии фразы«Над книгой взоры встретились не раз,
И мы бледнели с тайным содроганьем;
Но дальше повесть победила нас.
Гимн молодости и любительскому кино».
Лучшие фильмы 2017 года | Максим Карпицкий. Кино, свет очей моихДоп. информация: Перевод и тайминг – Максим Селезнёв, подготовка субтитров – Алексей Тютькин.
Цитата из романа Чарльза Диккенса «Посмертные записки Пиквикского Клуба» приведена в переводе А. Кривцовой и Е. Ланна.
Cineticle Cinéma
Сэмпл: http://multi-up.com/1183079
Качество видео: DVDRip-AVC
Формат видео: MKV
Видео: V_MPEG4/ISO/AVC at 2275 kbps, 0.219 bit/pixel, 720x576=>1050х576 at 25 fps
Аудио: AAC at 384 kbps, 2 (Front: L R) ch, 48 kHz
Код: Выделить всё
Формат                                   : Matroska
Версия формата                           : Version 2
Размер файла                             : 1,42 Гбайт
Продолжительность                        : 1 ч. 16 м.
Общий поток                              : 2661 Кбит/сек
Дата кодирования                         : UTC 2018-01-13 17:10:55
Программа кодирования                    : mkvmerge v5.7.0 ('The Whirlwind') built on Jul 10 2012 18:39:26
Библиотека кодирования                   : libebml v1.2.3 + libmatroska v1.3.0
Видео
Идентификатор                            : 1
Формат                                   : AVC
Формат/Информация                        : Advanced Video Codec
Профиль формата                          : High@L3
Параметр CABAC формата                   : Да
Параметр ReFrames формата                : 4 кадра
Идентификатор кодека                     : V_MPEG4/ISO/AVC
Продолжительность                        : 1 ч. 16 м.
Битрейт                                  : 2275 Кбит/сек
Ширина                                   : 720 пикселей
Высота                                   : 576 пикселей
Соотношение сторон                       : 1,85:1
Режим частоты кадров                     : Постоянный
Частота кадров                           : 25,000 кадров/сек
Стандарт вещания                         : PAL
Цветовое пространство                    : YUV
Субдискретизация насыщенности            : 4:2:0
Битовая глубина                          : 8 бит
Тип развёртки                            : Прогрессивная
Бит/(Пиксели*Кадры)                      : 0.219
Размер потока                            : 1,19 Гбайт (84%)
Библиотека кодирования                   : x264 core 152 r2851 ba24899
Настройки программы                      : cabac=1 / ref=3 / deblock=1:0:0 / analyse=0x3:0x113 / me=hex / subme=7 / psy=1 / psy_rd=1.00:0.00 / mixed_ref=1 / me_range=16 / chroma_me=1 / trellis=1 / 8x8dct=1 / cqm=0 / deadzone=21,11 / fast_pskip=1 / chroma_qp_offset=-2 / threads=6 / lookahead_threads=1 / sliced_threads=0 / nr=0 / decimate=1 / interlaced=0 / bluray_compat=0 / constrained_intra=0 / bframes=3 / b_pyramid=2 / b_adapt=1 / b_bias=0 / direct=1 / weightb=1 / open_gop=0 / weightp=2 / keyint=250 / keyint_min=25 / scenecut=40 / intra_refresh=0 / rc_lookahead=40 / rc=2pass / mbtree=1 / bitrate=2275 / ratetol=1.0 / qcomp=0.60 / qpmin=0 / qpmax=69 / qpstep=4 / cplxblur=20.0 / qblur=0.5 / ip_ratio=1.40 / aq=1:1.00
Default                                  : Да
Forced                                   : Нет
Statistics Tags Issue                    : mkvmerge v17.0.0 ('Be Ur Friend') 32-bit 2017-12-22 19:13:33 / mkvmerge v5.7.0 ('The Whirlwind') built on Jul 10 2012 18:39:26 2018-01-13 17:10:55
FromStats_BitRate                        : 2274966
FromStats_Duration                       : 01:16:37.600000000
FromStats_FrameCount                     : 114940
FromStats_StreamSize                     : 1307423486
Аудио
Идентификатор                            : 2
Формат                                   : AC-3
Формат/Информация                        : Audio Coding 3
Расширение режима                        : CM (complete main)
Параметр Endianness формата              : Big
Идентификатор кодека                     : A_AC3
Продолжительность                        : 1 ч. 16 м.
Вид битрейта                             : Постоянный
Битрейт                                  : 384 Кбит/сек
Каналы                                   : 2 канала
Расположение каналов                     : Front: L R
Частота                                  : 48,0 КГц
Частота кадров                           : 31,250 кадров/сек (1536 spf)
Битовая глубина                          : 16 бит
Метод сжатия                             : С потерями
Размер потока                            : 210 Мбайт (14%)
Default                                  : Да
Forced                                   : Нет
Statistics Tags Issue                    : mkvmerge v17.0.0 ('Be Ur Friend') 32-bit 2017-12-22 19:13:33 / mkvmerge v5.7.0 ('The Whirlwind') built on Jul 10 2012 18:39:26 2018-01-13 17:10:55
FromStats_BitRate                        : 384000
FromStats_Duration                       : 01:16:37.600000000
FromStats_FrameCount                     : 143675
FromStats_StreamSize                     : 220684800
Текст
Идентификатор                            : 3
Формат                                   : UTF-8
Идентификатор кодека                     : S_TEXT/UTF8
Идентификатор кодека/Информация          : UTF-8 Plain Text
Default                                  : Да
Forced                                   : Нет
1
00:00:00,920 --> 00:00:04,891
<i>Извержение вулкана Эйяфьядлайёкюдль
случилось вчерашней ночью.</i>
2
00:00:05,160 --> 00:00:07,811
<i>Пепел, распространившись
на тысячи квадратных километров,</i>
3
00:00:08,360 --> 00:00:10,931
<i>покрыл бóльшую часть
воздушного пространства Европы</i>
4
00:00:11,160 --> 00:00:13,731
<i>и парализовал летный трафик.</i>
5
00:00:14,440 --> 00:00:17,603
<i>Сотни и тысячи пассажиров
были задержаны.</i>
6
00:00:17,880 --> 00:00:20,770
<i>По официальным данным
17000 полетов уже отменены.</i>
7
00:00:21,600 --> 00:00:26,128
<i>Власти полагают, что трафик
не нормализуется еще несколько дней.</i>
8
00:00:28,440 --> 00:00:30,602
Белен, телефон!
Индийский художник.
9
00:00:32,440 --> 00:00:37,002
Привет! Это я. Застрял в алжирском
аэропорте и не понимаю, что происходит.
10
00:00:37,002 --> 00:00:37,802
Что мне делать?
11
00:00:38,840 --> 00:00:39,727
Еще звонок, Белен!
12
00:00:40,280 --> 00:00:42,600
Ага, это ваш номер телефона?
13
00:00:42,600 --> 00:00:45,902
ОК, я перезвоню через минуту. Да!
14
00:00:46,360 --> 00:00:46,929
<i>Белен?</i>
15
00:00:47,360 --> 00:00:48,486
Я на Азорах.
16
00:00:49,560 --> 00:00:50,209
Что мне делать?
17
00:00:50,560 --> 00:00:51,083
Где она?
18
00:00:51,440 --> 00:00:53,568
– На Азорах!
– Везет!
19
00:00:53,720 --> 00:00:56,007
Перезвоните,
когда что-нибудь прояснится.
20
00:00:56,200 --> 00:00:59,522
Если задержитесь до ночи,
мы оплатим вам отель.
 
Не забывайте говорить Спасибо. Не уходите с раздачи!   
Торрент: Зарегистрирован [14 янв 2018, 07:49] Для скачивания .torrent
необходима регистрация
Или скачать с помощью
MediaGet
Статус:
Проверен
 
.torrent скачан: 0 раз
Хэш: e8e7468e6a92b1e38b4a49bc98aff37c143c036d
Размер: 1.42 ГБ (1 529 167 833 байт)
Стать Автором раздачи
 
 
Раздал: 0 байт
Скачал: 0 байт
Ратио: Inf.
Сообщения: 380173
Зарегистрирован: 17 апр 2014, 13:57


  • Похожие торренты
    Ответы
    Просмотры
    Последнее сообщение

Вернуться в Арт-хаус и авторское кино

Ресурс не предоставляет электронные версии произведений, а занимается лишь коллекционированием и каталогизацией ссылок, присылаемых и публикуемых на форуме нашими читателями. Если вы являетесь правообладателем какого-либо представленного материала и не желаете чтобы ссылка на него находилась в нашем каталоге, свяжитесь с нами и мы незамедлительно удалим её. Файлы для обмена на трекере предоставлены пользователями сайта, и администрация не несёт ответственности за их содержание. Просьба не заливать файлы, защищенные авторскими правами, а также файлы нелегального содержания!
cron