[ATV 3] / The X-Files / Сезон 11, Эпизод 1-2 (10) (Ким Мэннерс, Роб Боумен, Дэвид Наттер) [2018, США, фантастика, триллер, драма, детектив, WEB-DL HD (1080p)] MVO (LostFilm) + Original + Sub(eng)

 
 Статистика раздачи 
Размер: 3.79 ГБ   |  Зарегистрирован: 14 янв 2018, 07:18   |   .torrent скачан: 0 раз
Сидеров: 1  [ 0 байт/сек ]     Личеров: 0  [ 0 байт/сек ]  
  

[ATV 3] / The X-Files / Сезон 11, Эпизод 1-2 (10) (Ким Мэннерс, Роб Боумен, Дэвид Наттер) [2018, США, фантастика, триллер, драма, детектив, WEB-DL HD (1080p)] MVO (LostFilm) + Original + Sub(eng)

Сообщение Nakazhu » 14 янв 2018, 07:18

Секретные материалы / The X-Files

«Истина где-то рядом»


Год выпуска: 2018
Страна: США, Канада
Жанр: фантастика, триллер, драма, детектив
Продолжительность серии: 44 мин.
Перевод: Многоголосый закадровый перевод
Оригинальная аудиодорожка: Есть
Субтитры: Английские
Режиссёр: Ким Мэннерс, Роб Боумен, Дэвид Наттер
Сценарий: Дэвид Аманн, Джиллиан Андерсон, Дэн Энджел
Продюсер: Крис Картер, Пол Рэбуин, Ким Мэннерс
Оператор: Билл Роу, Джон С. Бартли, Джоэль Рэнсом
Композитор: Марк Сноу
Художник: Кори Каплан, Грэм Мюррэй, Майкл Немирски
Монтаж: Хезер МакДугалл, Линн Уиллингэм, Стивен Марк
В ролях: Дэвид Духовны (Фокс Малдер), Джиллиан Андерсон (Дана Скалли), Митч Пилегги (Уолтер Скиннер), Уилльям Б. Дэвис (Курильщик), Робби Амелл (агент Миллер), Джоэл Макхэйл (Тед О'Мэлли), Аннабет Гиш (Моника Рейс)
Описание: Специальному агенту Дане Скалли, доктору и преподавателю академии ФБР в Вирджинии, поручают работу в паре с агентом Фоксом Малдером над проектом «Секретные материалы», архивом таинственных, нерешенных дел ФБР, которые зачастую связаны с паранормальными явлениями, случаями вампиризма и оборотничества, нападением генетических мутантов, свидетельствами о похищении людей пришельцами…
Малдер верит в пришельцев и пытается убедить скептика Скалли, что не всё и не всегда поддаётся разумному объяснению. В своих дискуссиях Малдер и Скалли не столько стараются убедить друг друга, сколько получают удовольствие от самого общения. Постепенно первоначальное взаимное недоверие перерастает в дружбу, а чуть позже и в более глубокое чувство.
Показ одиннадцатого сезона американского научно-фантастического телесериала «Секретные материалы» намечен на конец 2017 — начало 2018 года. Из-за плотного графика главных актеров выйдет 10 серий, съёмки начались 8 августа и продолжатся до 21 декабря 2017 года в Ванкувере. Премьера сезона состоится 3 января 2018 года на телеканале Fox. Российская премьера состоится на телеканале «ТВ-3» 4 января 2018 года в 22:00, через несколько часов после премьеры в США.
Качество исходника: WEB-DL 1080p (iTunes USA)
Качество: WEB-DL
Тип: 1080p
Контейнер: m4v
Видео: 1916 x 1076 at 23.976 fps, MPEG-4 AVC, ~5000 kbps avg
Аудио: Lostfilm - Русский - закадровый: MPEG-4 AAC LC, 2.0, ~ 160 kbps, 48000 Hz / AC-3, 5.1, 384 kbps, 48000 Hz
Аудио: Английский (США): MPEG-4 AAC LC, 2.0, ~ 160 kbps, 48000 Hz / AC-3, 5.1, 384 kbps, 48000 Hz
Субтитры: Английский - SDH для глухих: TX3G
Субтитры: Английский - скрытые субтитры: CEA-608
Секретные материалы, Сезон 11

The X-Files, Season 11
Eng: Picking up after the last event series' cliffhanger, Mulder and Scully learn that they aren't the only ones desperately searching for their long-lost son, William. The very fate of the world may depend on it.
Eng: An old friend reaches out to Mulder and Scully in a seemingly impossible way, revealing a chilling secret.
Код:
Код: Выделить всё
Name: My Struggle III
Artist: The X-Files
Album Artist: The X-Files
Album: The X-Files, Season 11
Media Kind: 10
HD Video:2
Genre: Sci-Fi & Fantasy
Release Date: 2018-01-03T08:00:00Z
Track #: 1/2
Disk #: 1/1
TV Show: The X-Files
TV Episode #: 11
TV Network: FOX
TV Episode ID: 2AYW01
TV Season: 11
Description: Picking up after the last event series’ cliffhanger, Mulder and Scully learn that they aren’t the
Long Description: Picking up after the last event series’ cliffhanger, Mulder and Scully learn that they aren’t the only ones desperately searching for their long-lost son, William. The very fate of the world may depend on it.
Series Description: In the all-new second chapter of THE X-FILES event series, stars David Duchovny and Gillian Anderson return in their iconic roles as FBI special agents Mulder and Scully to investigate more unexplained cases – “X-Files” – for which the only answers involve paranormal phenomena. Series creator Chris Carter returns as executive producer, writer and director.
Content Rating: 0
Copyright: В© 2018 Fox and its related entities. All rights reserved.
content ID: 1330355578
artist ID: 282946585
playlist ID: 1319464282
genre ID: 4008
XID: FoxTV:vendor_id:FOX_XFILES_2AYW01_US
iTunes Country: 143441
Sort Name: My Struggle III
Sort Artist: The X-Files
Sort Album: The X-Files, Season 11

Код:
Код: Выделить всё
General
Complete name                            : 01 My Struggle III (1080p HD).m4v
Format                                   : MPEG-4
Codec ID                                 : M4V  (M4V /mp42/isom)
File size                                : 1.88 GiB
Duration                                 : 42 min 56 s
Overall bit rate mode                    : Variable
Overall bit rate                         : 6 264 kb/s
Collection                               : The X-Files
Season                                   : 11
Album                                    : The X-Files, Season 11
Album/Sorted by                          : The X-Files, Season 11
Album/Performer                          : The X-Files
Part                                     : 1
Part/Position                            : 1
Part/Total                               : 1
Track name                               : My Struggle III
Track name/Position                      : 1
Track name/Total                         : 1
Performer                                : The X-Files
Performer/Sorted by                      : The X-Files
Genre                                    : Sci-Fi & Fantasy
ContentType                              : TV Show
Description                              : Picking up after the last event series' cliffhanger, Mulder and Scully learn that they aren't the / In the all-new second chapter of THE X-FILES event series, stars David Duchovny and Gillian Anderson return in their iconic roles as FBI special agents Mulder and Scully to investigate more unexplained cases – “X-Files” – for which the only answers involve paranormal phenomena. Series creator Chris Carter returns as executive producer, writer and director.
Recorded date                            : UTC 2018-01-03 08:00:00
Encoded date                             : UTC 2017-12-31 09:10:28
Tagged date                              : UTC 2017-12-31 09:10:33
Copyright                                : В© 2018 Fox and its related entities. All rights reserved.
Cover                                    : Yes
Rating                                   : None
AppleStoreCatalogID                      : 1330355578
AlbumTitleID                             : 282946585
PlayListID                               : 1319464282
GenreID                                  : 4008
Part_ID                                  : 2AYW01
Title/Sort                               : My Struggle III
ContentRating                            : us-tv|TV-14|500|
LongDescription                          : Picking up after the last event series' cliffhanger, Mulder and Scully learn that they aren't the only ones desperately searching for their long-lost son, William. The very fate of the world may depend on it.
TVNetworkName                            : FOX
Vendor                                   : FoxTV:vendor_id:FOX_XFILES_2AYW01_US
Flavour                                  : 18:1080p
AppleStoreCountry                        : United States
Video
ID                                       : 1
Format                                   : AVC
Format/Info                              : Advanced Video Codec
Format profile                           : High@L4
Format settings                          : CABAC / 4 Ref Frames
Format settings, CABAC                   : Yes
Format settings, RefFrames               : 4 frames
Codec ID                                 : avc1
Codec ID/Info                            : Advanced Video Coding
Duration                                 : 42 min 56 s
Bit rate                                 : 5 182 kb/s
Maximum bit rate                         : 13.0 Mb/s
Width                                    : 1 916 pixels
Height                                   : 1 076 pixels
Display aspect ratio                     : 16:9
Frame rate mode                          : Constant
Frame rate                               : 23.976 (24000/1001) FPS
Color space                              : YUV
Chroma subsampling                       : 4:2:0
Bit depth                                : 8 bits
Scan type                                : Progressive
Bits/(Pixel*Frame)                       : 0.105
Stream size                              : 1.55 GiB (83%)
Title                                    : Core Media Video
Language                                 : English
Encoded date                             : UTC 2017-12-31 09:10:28
Tagged date                              : UTC 2017-12-31 09:10:33
Color range                              : Limited
Color primaries                          : BT.709
Transfer characteristics                 : BT.709
Matrix coefficients                      : BT.709
Audio #1
ID                                       : 2
Format                                   : AAC
Format/Info                              : Advanced Audio Codec
Format profile                           : LC
Codec ID                                 : mp4a-40-2
Duration                                 : 42 min 56 s
Bit rate mode                            : Variable
Bit rate                                 : 147 kb/s
Maximum bit rate                         : 203 kb/s
Channel(s)                               : 2 channels
Channel positions                        : Front: L R
Sampling rate                            : 48.0 kHz
Frame rate                               : 46.875 FPS (1024 SPF)
Compression mode                         : Lossy
Stream size                              : 45.1 MiB (2%)
Title                                    : Core Media Audio
Language                                 : Russian
Default                                  : Yes
Alternate group                          : 1
Encoded date                             : UTC 2018-01-06 19:59:04
Tagged date                              : UTC 2018-01-06 19:59:04
Fallback From                            : 3
tagc                                     : public.translation.voice-over
Audio #2
ID                                       : 3
Format                                   : AC-3
Format/Info                              : Audio Coding 3
Format settings, Endianness              : Big
Codec ID                                 : ac-3
Duration                                 : 42 min 56 s
Bit rate mode                            : Constant
Bit rate                                 : 384 kb/s
Maximum bit rate                         : 406 kb/s
Channel(s)                               : 6 channels
Channel positions                        : Front: L C R, Side: L R, LFE
Sampling rate                            : 48.0 kHz
Frame rate                               : 31.250 FPS (1536 SPF)
Bit depth                                : 16 bits
Compression mode                         : Lossy
Stream size                              : 118 MiB (6%)
Title                                    : Core Media Audio
Language                                 : Russian
Service kind                             : Complete Main
Default                                  : Inherited From: 2
Alternate group                          : 1
Encoded date                             : UTC 2018-01-06 19:59:04
Tagged date                              : UTC 2018-01-06 19:59:04
Fallback To                              : 2
tagc                                     : public.translation.voice-over
Audio #3
ID                                       : 4
Format                                   : AAC
Format/Info                              : Advanced Audio Codec
Format profile                           : LC
Codec ID                                 : mp4a-40-2
Duration                                 : 42 min 56 s
Bit rate mode                            : Variable
Bit rate                                 : 157 kb/s
Maximum bit rate                         : 256 kb/s
Channel(s)                               : 2 channels
Channel positions                        : Front: L R
Sampling rate                            : 48.0 kHz
Frame rate                               : 46.875 FPS (1024 SPF)
Compression mode                         : Lossy
Stream size                              : 48.3 MiB (3%)
Title                                    : Core Media Audio
Language                                 : English
Default                                  : No
Alternate group                          : 1
Encoded date                             : UTC 2017-12-31 09:10:28
Tagged date                              : UTC 2017-12-31 09:10:33
Fallback From                            : 6
Audio #4
ID                                       : 6
Format                                   : AC-3
Format/Info                              : Audio Coding 3
Format settings, Endianness              : Big
Codec ID                                 : ac-3
Duration                                 : 42 min 56 s
Bit rate mode                            : Constant
Bit rate                                 : 384 kb/s
Maximum bit rate                         : 406 kb/s
Channel(s)                               : 6 channels
Channel positions                        : Front: L C R, Side: L R, LFE
Sampling rate                            : 48.0 kHz
Frame rate                               : 31.250 FPS (1536 SPF)
Bit depth                                : 16 bits
Compression mode                         : Lossy
Stream size                              : 118 MiB (6%)
Title                                    : Core Media Audio
Language                                 : English
Service kind                             : Complete Main
Default                                  : No
Alternate group                          : 1
Encoded date                             : UTC 2017-12-31 09:10:28
Tagged date                              : UTC 2017-12-31 09:10:33
Fallback To                              : 4
Text #1
ID                                       : 5-CC1
Format                                   : EIA-608
Muxing mode                              : Final Cut
Codec ID                                 : c608
Duration                                 : 42 min 54 s
Bit rate mode                            : Constant
Stream size                              : 0.00 Byte (0%)
Title                                    : Core Media Closed Caption
Language                                 : English
Forced                                   : No
Encoded date                             : UTC 2017-12-31 09:10:28
Tagged date                              : UTC 2017-12-31 09:10:33
CaptionServiceName                       : CC1
Text #2
ID                                       : 7
Format                                   : Timed Text
Muxing mode                              : sbtl
Codec ID                                 : tx3g
Duration                                 : 42 min 54 s
Bit rate mode                            : Variable
Bit rate                                 : 78 b/s
Stream size                              : 24.6 KiB (0%)
Title                                    : Core Media Subtitle
Language                                 : English
Default                                  : No
Forced                                   : No
Alternate group                          : 2
Encoded date                             : UTC 2017-12-31 09:10:28
Tagged date                              : UTC 2017-12-31 09:10:33
tagc                                     : public.accessibility.transcribes-spoken-dialog





[/spoiler]
 
Не забывайте говорить Спасибо. Не уходите с раздачи!   
Торрент: Зарегистрирован [14 янв 2018, 07:18] Для скачивания .torrent
необходима регистрация
Или скачать с помощью
MediaGet
Статус:
Проверен
 
.torrent скачан: 0 раз
Хэш: cc921370352f182da9c9724606d9772d43689949
Размер: 3.79 ГБ (4 065 883 398 байт)
Стать Автором раздачи
 
 
Раздал: 0 байт
Скачал: 0 байт
Ратио: Inf.
Сообщения: 487468
Зарегистрирован: 17 апр 2014, 13:57


  • Похожие торренты
    Ответы
    Просмотры
    Последнее сообщение

Вернуться в Сериалы HD для Apple TV

Ресурс не предоставляет электронные версии произведений, а занимается лишь коллекционированием и каталогизацией ссылок, присылаемых и публикуемых на форуме нашими читателями. Если вы являетесь правообладателем какого-либо представленного материала и не желаете чтобы ссылка на него находилась в нашем каталоге, свяжитесь с нами и мы незамедлительно удалим её. Файлы для обмена на трекере предоставлены пользователями сайта, и администрация не несёт ответственности за их содержание. Просьба не заливать файлы, защищенные авторскими правами, а также файлы нелегального содержания!
cron