Счастливого дня смерти / Happy Death Day (Кристофер Лэндон / Christopher Landon) [2017, США, ужасы, триллер, детектив, BDRip-AVC] MVO (AlexFilm) + Original + Sub (rus, eng)

 
 Статистика раздачи 
Размер: 1.46 ГБ   |  Зарегистрирован: 14 янв 2018, 06:16   |   .torrent скачан: 0 раз
Сидеров: 1  [ 0 байт/сек ]     Личеров: 0  [ 0 байт/сек ]  
  

Счастливого дня смерти / Happy Death Day (Кристофер Лэндон / Christopher Landon) [2017, США, ужасы, триллер, детектив, BDRip-AVC] MVO (AlexFilm) + Original + Sub (rus, eng)

Сообщение Nakazhu » 14 янв 2018, 06:16

Счастливого дня смерти / Happy Death Day
«Проснись. Отпразднуй день рождения. Умри. Повтори. Снова и снова...»

Страна: США
Жанр: ужасы, триллер, детектив, комедия
Год выпуска: 2017
Продолжительность: 01:36:11
Перевод: Профессиональный (многоголосый, закадровый) (AlexFilm)
Оригинальная аудиодорожка: английский
Субтитры: русские (полные) английские (полные, SDH)
Навигация по главам: есть
Режиссер: Кристофер Лэндон / Christopher Landon
В ролях: Джессика Рот (Tree Gelbman), Израэль Бруссар (Carter Davis), Руби Модин (Lori Spengler), Лаура Клифтон (Stephanie Butler), Джейсон Бэйл (David Gelbman), Роб Мелло (Joseph Tombs), Рэйчел Мэттьюз (Danielle Bouseman), Рэмси Андерсон (Keith Lumbly), Брэйди Льюис (Frat Brother), Фи Ву (Ryan Phan), Тени Интриаго (Student Protester), Блейн Керн (Nick Sims)
Описание: Каждый в универе мечтал попасть на её день рождения, но праздник был безнадежно испорчен незнакомцем в маске, убившим виновницу торжества. Однако судьба преподнесла имениннице леденящий душу подарок - бесконечный запас жизней. И теперь у девушки появился шанс вычислить своего убийцу, ведь этот день будет повторяться снова и снова...

Качество: BDRip-AVC (исходник - Happy.Death.Day.2017.REMUX.1080p.BluRay.AVC.DTS-HD.MA.5.1-iFT)
Формат видео: MKV
Видео: x264, 1080x452 (2.40:1) 23,976 fps, ~1552 kbps, 0.133 bit/pixel
Аудио 1: 48 kHz, AC3 Dolby Digital, 2/0 (L,R) ch, ~192 kbps [русский]
Аудио 2: 48 kHz, AC3 Dolby Digital, 3/2 (L,C,R,l,r) + LFE ch, ~384 kbps [английский]
Формат субтитров: softsub (SRT)
Format : Matroska
Format version : Version 4 / Version 2
File size : 1.46 GiB
Duration : 1 h 36 min
Overall bit rate : 2 171 kb/s
Movie name : Счастливого дня смерти / Happy Death Day (2017) :: AFM ::
Encoded date : UTC 2018-01-14 01:11:37
Writing application : mkvmerge v8.3.0 ('Over the Horizon') 32bit
Writing library : libebml v1.3.1 + libmatroska v1.4.2
Cover : Yes
Attachments : cover.jpg
Video
ID : 1
Format : AVC
Format/Info : Advanced Video Codec
Format profile : High@L4.1
Format settings, CABAC : Yes
Format settings, ReFrames : 11 frames
Codec ID : V_MPEG4/ISO/AVC
Duration : 1 h 36 min
Bit rate : 1 552 kb/s
Width : 1 080 pixels
Height : 452 pixels
Display aspect ratio : 2.40:1
Frame rate mode : Constant
Frame rate : 23.976 (24000/1001) FPS
Color space : YUV
Chroma subsampling : 4:2:0
Bit depth : 8 bits
Scan type : Progressive
Bits/(Pixel*Frame) : 0.133
Stream size : 1.04 GiB (71%)
Title : BDRip by AFM
Writing library : x264 core 152 r2851+45 9658d1a 7mod [8-bit@all X86_64]
Encoding settings : cabac=1 / ref=11 / deblock=1:-3:-2 / analyse=0x3:0x133 / me=umh / subme=10 / psy=1 / fade_compensate=0.00 / psy_rd=1.00:0.00 / mixed_ref=1 / me_range=32 / chroma_me=0 / trellis=2 / 8x8dct=1 / cqm=0 / deadzone=21,11 / fast_pskip=0 / chroma_qp_offset=-2 / threads=6 / lookahead_threads=1 / sliced_threads=0 / nr=0 / decimate=1 / interlaced=0 / bluray_compat=0 / constrained_intra=0 / fgo=0 / bframes=15 / b_pyramid=2 / b_adapt=2 / b_bias=0 / direct=1 / weightb=1 / open_gop=0 / weightp=2 / keyint=240 / keyint_min=23 / scenecut=40 / intra_refresh=0 / rc_lookahead=90 / rc=crf / mbtree=0 / crf=18.8000 / qcomp=0.65 / qpmin=0:0:0 / qpmax=69:69:69 / qpstep=4 / vbv_maxrate=50000 / vbv_bufsize=62500 / crf_max=0.0 / nal_hrd=none / filler=0 / ip_ratio=1.35 / pb_ratio=1.25 / aq=3:0.80 / aq-sensitivity=10.00 / aq-factor=1.00:1.00:1.00 / aq2=0 / aq3=0 / zones=132105,138374,q=30
Language : English
Default : Yes
Forced : No
Audio #1
ID : 2
Format : AC-3
Format/Info : Audio Coding 3
Mode extension : CM (complete main)
Format settings, Endianness : Big
Codec ID : A_AC3
Duration : 1 h 36 min
Bit rate mode : Constant
Bit rate : 192 kb/s
Channel(s) : 2 channels
Channel positions : Front: L R
Sampling rate : 48.0 kHz
Frame rate : 31.250 FPS (1536 spf)
Compression mode : Lossy
Stream size : 132 MiB (9%)
Title : MVO (AlexFilm) AC3 2.0 ~192 kbps
Language : Russian
Default : Yes
Forced : No
Audio #2
ID : 3
Format : AC-3
Format/Info : Audio Coding 3
Mode extension : CM (complete main)
Format settings, Endianness : Big
Codec ID : A_AC3
Duration : 1 h 36 min
Bit rate mode : Constant
Bit rate : 384 kb/s
Channel(s) : 6 channels
Channel positions : Front: L C R, Side: L R, LFE
Sampling rate : 48.0 kHz
Frame rate : 31.250 FPS (1536 spf)
Compression mode : Lossy
Stream size : 264 MiB (18%)
Title : Original, AC3 5.1 ~384 kbps
Language : English
Default : No
Forced : No
Text #1
ID : 4
Format : UTF-8
Codec ID : S_TEXT/UTF8
Codec ID/Info : UTF-8 Plain Text
Language : Russian
Default : No
Forced : No
Text #2
ID : 5
Format : UTF-8
Codec ID : S_TEXT/UTF8
Codec ID/Info : UTF-8 Plain Text
Language : English
Default : No
Forced : No
Text #3
ID : 6
Format : UTF-8
Codec ID : S_TEXT/UTF8
Codec ID/Info : UTF-8 Plain Text
Title : SDH
Language : English
Default : No
Forced : No
Menu
00:00:00.000 : en:Chapter 01
00:04:54.460 : en:Chapter 02
00:10:26.000 : en:Chapter 03
00:14:10.683 : en:Chapter 04
00:21:46.722 : en:Chapter 05
00:25:08.798 : en:Chapter 06
00:29:37.859 : en:Chapter 07
00:33:09.320 : en:Chapter 08
00:37:50.142 : en:Chapter 09
00:41:46.170 : en:Chapter 10
00:44:54.191 : en:Chapter 11
00:53:07.934 : en:Chapter 12
00:57:28.361 : en:Chapter 13
01:00:18.448 : en:Chapter 14
01:07:41.557 : en:Chapter 15
01:12:16.290 : en:Chapter 16
01:16:35.090 : en:Chapter 17
01:21:17.080 : en:Chapter 18
01:27:13.645 : en:Chapter 19
01:30:24.168 : en:Chapter 20
01:36:11.140 : en:Chapter 21
x264 [info]: frame I:1272 Avg QP:16.73 size: 55674
x264 [info]: frame P:29367 Avg QP:18.19 size: 18261
x264 [info]: frame B:107735 Avg QP:21.24 size: 5028
x264 [info]: consecutive B-frames: 2.6% 2.4% 6.7% 16.9% 19.1% 37.1% 8.5% 1.8% 1.4% 0.8% 0.7% 0.6% 0.5% 0.3% 0.2% 0.5%
x264 [info]: mb I I16..4: 6.6% 72.5% 20.9%
x264 [info]: mb P I16..4: 2.2% 12.2% 2.7% P16..4: 40.4% 19.2% 13.3% 0.5% 0.2% skip: 9.2%
x264 [info]: mb B I16..4: 0.1% 0.8% 0.3% B16..8: 37.9% 8.5% 1.9% direct: 3.9% skip:46.7% L0:42.5% L1:46.0% BI:11.5%
x264 [info]: 8x8 transform intra:70.7% inter:69.9%
x264 [info]: coded y,uvDC,uvAC intra: 76.2% 81.6% 60.3% inter: 14.7% 14.8% 2.9%
x264 [info]: i16 v,h,dc,p: 37% 12% 7% 45%
x264 [info]: i8 v,h,dc,ddl,ddr,vr,hd,vl,hu: 16% 9% 7% 9% 13% 13% 11% 11% 11%
x264 [info]: i4 v,h,dc,ddl,ddr,vr,hd,vl,hu: 25% 6% 4% 9% 13% 13% 11% 10% 9%
x264 [info]: i8c dc,h,v,p: 38% 22% 22% 18%
x264 [info]: Weighted P-Frames: Y:97.1% UV:3.6%
x264 [info]: ref P L0: 52.1% 10.7% 15.4% 5.7% 4.5% 3.2% 2.8% 1.5% 1.4% 1.2% 1.3% 0.1% 0.0%
x264 [info]: ref B L0: 76.7% 10.4% 5.1% 2.4% 1.7% 1.4% 1.1% 0.7% 0.4% 0.2%
x264 [info]: ref B L1: 94.0% 6.0%
x264 [info]: kb/s:1592.43
 
Не забывайте говорить Спасибо. Не уходите с раздачи!   
Торрент: Зарегистрирован [14 янв 2018, 06:16] Для скачивания .torrent
необходима регистрация
Или скачать с помощью
MediaGet
Статус:
Проверен
 
.torrent скачан: 0 раз
Хэш: 46e6b636b8c91033c6ea2baa57e8b3b6bdc3e9bb
Размер: 1.46 ГБ (1 566 132 148 байт)
Стать Автором раздачи
 
 
Раздал: 0 байт
Скачал: 0 байт
Ратио: Inf.
Сообщения: 439785
Зарегистрирован: 17 апр 2014, 13:57


  • Похожие торренты
    Ответы
    Просмотры
    Последнее сообщение

Вернуться в Зарубежное кино

Ресурс не предоставляет электронные версии произведений, а занимается лишь коллекционированием и каталогизацией ссылок, присылаемых и публикуемых на форуме нашими читателями. Если вы являетесь правообладателем какого-либо представленного материала и не желаете чтобы ссылка на него находилась в нашем каталоге, свяжитесь с нами и мы незамедлительно удалим её. Файлы для обмена на трекере предоставлены пользователями сайта, и администрация не несёт ответственности за их содержание. Просьба не заливать файлы, защищенные авторскими правами, а также файлы нелегального содержания!
cron