Аполлон 13 / Apollo 13 (1995) UHD BDRemux 2160p | 4K | HDR | D, P, A

 
 Статистика раздачи 
Размер: 50.96 ГБ   |  Зарегистрирован: 14 янв 2018, 02:06   |   .torrent скачан: 0 раз
Сидеров: 1  [ 0 байт/сек ]     Личеров: 0  [ 0 байт/сек ]  
  

Аполлон 13 / Apollo 13 (1995) UHD BDRemux 2160p | 4K | HDR | D, P, A

Сообщение graf_t » 14 янв 2018, 02:06

Производство: США / Universal Pictures
Жанр: драма, приключения, история

Режиссер: Рон Ховард
Продюсер: Брайан Грейзер, Майкл Бостик, Тодд Халлоуэлл
Актеры: Том Хэнкс, Билл Пэкстон, Кевин Бэйкон, Гэри Синиз, Эд Харрис, Кэтлин Куинлен, Мэри Кейт Шеллхардт, Эмили Энн Ллойд, Мико Хьюз, Макс Эллиотт Слэйд, Трэйси и др.

Описание:
Фильм о неудачной лунной миссии «Аполлон-13» — одном из самых драматических моментов освоения космоса. В 1970 «Аполлон-13» должен был стать третьим космическим кораблём, который доставил бы астронавтов на Луну. Однако уже на подлёте к цели на корабле произошла серьёзная авария, которая не только поставила крест на высадке, но и создала угрозу жизни экипажа.



Релиз от: NIMA4K, BLUEBIRD
Продолжительность: 02:19:51
Качество: UHD BDRemux (HDR)
Перевод: Дублированный, Профессиональный (многоголосый, закадровый) (1й Канал, Премьер Видео, СТС), Авторский (одноголосый, закадровый) (А. Гаврилов)
Субтитры: Английские, Русские (Full-length, Forced), Русские (Commentary #1, Commentary #2)

Видео: HEVC/H.265, 3840x2160p, (16:9), 36.9 Mb/s, 23,976 fps
Аудио 1: DTS, 6 ch, 768 kbps - Русский, Дубляж
Аудио 2: AC3, 2 ch, 192 kbps - Русский, 1й Канал
Аудио 3: AC3, 2 ch, 192 kbps - Русский, Премьер Видео
Аудио 4: AC3, 2 ch, 192 kbps - Русский, СТС
Аудио 5: AC3, 2 ch, 192 kbps - Украинский, Интер
Аудио 6: AC3, 2 ch, 1920 kbps - Украинский, НЛО-TV
Аудио 7: DTS-HD MA, 8 ch, 5634 kbps - Русский, А. Гаврилов
Аудио 8: DTS-HD MA, 8 ch, 7247 kbps - Английский
Аудио 9: AC3, 2 ch, 192 kbps - Английский, Commentary #1
Аудио 10: AC3, 2 ch, 192 kbps - Английский, Commentary #2

General
Unique ID : 198688363477953810534676312889447011372 (0x9579FCA4525471F794868C504E59D42C)
Complete name : APOLLO13_BD_UHD_HDR_REMUX-BLUEBIRD.mkv
Format : Matroska
Format version : Version 4 / Version 2
File size : 51.0 GiB
Duration : 2 h 20 min
Overall bit rate : 52.0 Mb/s
Movie name : APOLLO13_BD_UHD_HDR_REMUX-BLUEBIRD
Encoded date : UTC 2017-11-29 03:16:18
Writing application : mkvmerge v16.0.0 ('Protest') 64-bit
Writing library : libebml v1.3.5 + libmatroska v1.4.8
Cover : Yes
Attachments : cover.png

Video
ID : 1
Format : HEVC
Format/Info : High Efficiency Video Coding
Format profile : Main 10@L5.1@High
Codec ID : V_MPEGH/ISO/HEVC
Duration : 2 h 19 min
Bit rate : 36.9 Mb/s
Width : 3 840 pixels
Height : 2 160 pixels
Display aspect ratio : 16:9
Frame rate mode : Constant
Frame rate : 23.976 (24000/1001) FPS
Color space : YUV
Chroma subsampling : 4:2:0 (Type 2)
Bit depth : 10 bits
Bits/(Pixel*Frame) : 0.186
Stream size : 36.1 GiB (71%)
Title : APOLLO13_BD_UHD_HDR_REMUX-BLUEBIRD
Writing library : ATEME Titan File 3.8.3 (4.8.3.0)
Default : Yes
Forced : No
Color range : Limited
Color primaries : BT.2020
Transfer characteristics : SMPTE ST 2084
Matrix coefficients : BT.2020 non-constant
Mastering display color primaries : R: x=0.680000 y=0.320000, G: x=0.265000 y=0.690000, B: x=0.150000 y=0.060000, White point: x=0.312700 y=0.329000
Mastering display luminance : min: 0.0050 cd/m2, max: 1000.0000 cd/m2
Maximum Content Light Level : 1000 cd/m2
Maximum Frame-Average Light Level : 293 cd/m2

Audio #1
ID : 2
Format : DTS
Format/Info : Digital Theater Systems
Mode : 16
Format settings, Endianness : Big
Codec ID : A_DTS
Duration : 2 h 19 min
Bit rate mode : Constant
Bit rate : 768 kb/s
Channel(s) : 6 channels
Channel positions : Front: L C R, Side: L R, LFE
Sampling rate : 48.0 kHz
Frame rate : 93.750 FPS (512 SPF)
Bit depth : 24 bits
Compression mode : Lossy
Stream size : 767 MiB (1%)
Title : [DUB] DTS 5.1 @ 768 kbps
Language : Russian
Default : Yes
Forced : No

Audio #2
ID : 3
Format : AC-3
Format/Info : Audio Coding 3
Format settings, Endianness : Big
Codec ID : A_AC3
Duration : 2 h 19 min
Bit rate mode : Constant
Bit rate : 192 kb/s
Channel(s) : 2 channels
Channel positions : Front: L R
Sampling rate : 48.0 kHz
Frame rate : 31.250 FPS (1536 SPF)
Bit depth : 16 bits
Compression mode : Lossy
Stream size : 192 MiB (0%)
Title : [MVO] DD 2.0 @ 192 kbps ("Pervyj Kanal")
Language : Russian
Service kind : Complete Main
Default : No
Forced : No

Audio #3
ID : 4
Format : AC-3
Format/Info : Audio Coding 3
Format settings, Endianness : Big
Codec ID : A_AC3
Duration : 2 h 19 min
Bit rate mode : Constant
Bit rate : 192 kb/s
Channel(s) : 2 channels
Channel positions : Front: L R
Sampling rate : 48.0 kHz
Frame rate : 31.250 FPS (1536 SPF)
Bit depth : 16 bits
Compression mode : Lossy
Stream size : 192 MiB (0%)
Title : [MVO] DD 2.0 @ 192 kbps ("Premier Video")
Language : Russian
Service kind : Complete Main
Default : No
Forced : No

Audio #4
ID : 5
Format : AC-3
Format/Info : Audio Coding 3
Format settings, Endianness : Big
Codec ID : A_AC3
Duration : 2 h 19 min
Bit rate mode : Constant
Bit rate : 192 kb/s
Channel(s) : 2 channels
Channel positions : Front: L R
Sampling rate : 48.0 kHz
Frame rate : 31.250 FPS (1536 SPF)
Bit depth : 16 bits
Compression mode : Lossy
Stream size : 192 MiB (0%)
Title : [MVO] DD 2.0 @ 192 kbps ("CTC")
Language : Russian
Service kind : Complete Main
Default : No
Forced : No

Audio #5
ID : 6
Format : AC-3
Format/Info : Audio Coding 3
Mode : Dolby Digital
Format settings, Endianness : Big
Codec ID : A_AC3
Duration : 2 h 19 min
Bit rate mode : Constant
Bit rate : 192 kb/s
Channel(s) : 2 channels
Channel positions : Front: L R
Sampling rate : 48.0 kHz
Frame rate : 31.250 FPS (1536 SPF)
Bit depth : 16 bits
Compression mode : Lossy
Stream size : 192 MiB (0%)
Title : [MVO] DD 2.0 @ 192 kbps ("Inter")
Language : Ukrainian
Service kind : Complete Main
Default : No
Forced : No

Audio #6
ID : 7
Format : AC-3
Format/Info : Audio Coding 3
Format settings, Endianness : Big
Codec ID : A_AC3
Duration : 2 h 19 min
Bit rate mode : Constant
Bit rate : 192 kb/s
Channel(s) : 2 channels
Channel positions : Front: L R
Sampling rate : 48.0 kHz
Frame rate : 31.250 FPS (1536 SPF)
Bit depth : 16 bits
Compression mode : Lossy
Stream size : 192 MiB (0%)
Title : [MVO] DD 2.0 @ 192 kbps ("NLO-TV")
Language : Ukrainian
Service kind : Complete Main
Default : No
Forced : No

Audio #7
ID : 8
Format : DTS
Format/Info : Digital Theater Systems
Format profile : MA / Core
Mode : 16
Format settings, Endianness : Big
Codec ID : A_DTS
Duration : 2 h 20 min
Bit rate mode : Variable / Constant
Bit rate : 5 634 kb/s / 1 509 kb/s
Channel(s) : 8 channels / 6 channels
Channel positions : Front: L C R, Side: L R, Back: L R, LFE / Front: L C R, Side: L R, LFE
Sampling rate : 48.0 kHz
Frame rate : 93.750 FPS (512 SPF)
Bit depth : 24 bits
Compression mode : Lossless / Lossy
Stream size : 5.52 GiB (11%)
Title : [VO] DTS-HD MA 7.1 @ 5635 kbps (A. Gavrilov)
Language : Russian
Default : No
Forced : No

Audio #8
ID : 9
Format : DTS
Format/Info : Digital Theater Systems
Format profile : X / MA / Core
Mode : 16
Format settings, Endianness : Big
Codec ID : A_DTS
Duration : 2 h 19 min
Bit rate mode : Variable / Variable / Constant
Bit rate : 7 247 kb/s / 7 247 kb/s / 1 509 kb/s
Channel(s) : Object Based / 8 channels / 6 channels
Channel positions : Object Based / Front: L C R, Side: L R, Back: L R, LFE / Front: L C R, Side: L R, LFE
Sampling rate : / 48.0 kHz / 48.0 kHz
Frame rate : 93.750 FPS (512 SPF)
Bit depth : / 24 bits / 24 bits
Compression mode : / Lossless / Lossy
Stream size : 7.08 GiB (14%)
Title : [ORIGINAL] 7.1 DTS:X @ 7230 kbps
Language : English
Default : No
Forced : No

Audio #9
ID : 10
Format : AC-3
Format/Info : Audio Coding 3
Mode : Dolby Digital
Format settings, Endianness : Big
Codec ID : A_AC3
Duration : 2 h 19 min
Bit rate mode : Constant
Bit rate : 192 kb/s
Channel(s) : 2 channels
Channel positions : Front: L R
Sampling rate : 48.0 kHz
Frame rate : 31.250 FPS (1536 SPF)
Bit depth : 16 bits
Compression mode : Lossy
Stream size : 192 MiB (0%)
Title : Commentary #1
Language : English
Service kind : Complete Main
Default : No
Forced : No

Audio #10
ID : 11
Format : AC-3
Format/Info : Audio Coding 3
Format settings, Endianness : Big
Codec ID : A_AC3
Duration : 2 h 19 min
Bit rate mode : Constant
Bit rate : 192 kb/s
Channel(s) : 2 channels
Channel positions : Front: L R
Sampling rate : 48.0 kHz
Frame rate : 31.250 FPS (1536 SPF)
Bit depth : 16 bits
Compression mode : Lossy
Stream size : 192 MiB (0%)
Title : Commentary #2
Language : English
Service kind : Complete Main
Default : No
Forced : No

Text #1
ID : 12
Format : PGS
Codec ID : S_HDMV/PGS
Codec ID/Info : Picture based subtitle format used on BDs/HD-DVDs
Duration : 2 h 13 min
Bit rate : 57.8 kb/s
Count of elements : 3743
Stream size : 55.2 MiB (0%)
Title : [SUP] Full-length
Language : Russian
Default : No
Forced : No

Text #2
ID : 13
Format : UTF-8
Codec ID : S_TEXT/UTF8
Codec ID/Info : UTF-8 Plain Text
Duration : 2 h 13 min
Bit rate : 123 b/s
Count of elements : 1789
Stream size : 121 KiB (0%)
Title : [SRT] Full-length
Language : Russian
Default : No
Forced : No

Text #3
ID : 14
Format : PGS
Codec ID : S_HDMV/PGS
Codec ID/Info : Picture based subtitle format used on BDs/HD-DVDs
Duration : 2 h 13 min
Bit rate : 52.3 kb/s
Count of elements : 4270
Stream size : 49.9 MiB (0%)
Title : [SUP] Full-length
Language : English
Default : No
Forced : No

Text #4
ID : 15
Format : UTF-8
Codec ID : S_TEXT/UTF8
Codec ID/Info : UTF-8 Plain Text
Duration : 2 h 13 min
Bit rate : 78 b/s
Count of elements : 2135
Stream size : 76.8 KiB (0%)
Title : [SRT] Full-length
Language : English
Default : No
Forced : No

Text #5
ID : 16
Format : PGS
Codec ID : S_HDMV/PGS
Codec ID/Info : Picture based subtitle format used on BDs/HD-DVDs
Duration : 2 h 13 min
Bit rate : 1 178 b/s
Count of elements : 108
Stream size : 1.12 MiB (0%)
Title : [SUP] Forced
Language : Russian
Default : Yes
Forced : Yes

Text #6
ID : 17
Format : UTF-8
Codec ID : S_TEXT/UTF8
Codec ID/Info : UTF-8 Plain Text
Duration : 27 min 9 s
Bit rate : 2 b/s
Count of elements : 5
Stream size : 480 Bytes (0%)
Title : [SRT] Forced
Language : Russian
Default : No
Forced : No

Text #7
ID : 18
Format : PGS
Codec ID : S_HDMV/PGS
Codec ID/Info : Picture based subtitle format used on BDs/HD-DVDs
Duration : 2 h 14 min
Bit rate : 61.0 kb/s
Count of elements : 4130
Stream size : 58.8 MiB (0%)
Title : Commentary #1
Language : Russian
Default : No
Forced : No

Text #8
ID : 19
Format : PGS
Codec ID : S_HDMV/PGS
Codec ID/Info : Picture based subtitle format used on BDs/HD-DVDs
Duration : 2 h 14 min
Bit rate : 68.0 kb/s
Count of elements : 4380
Stream size : 65.3 MiB (0%)
Title : Commentary #2
Language : Russian
Default : No
Forced : No

Menu
00:00:00.000 : en:Chapter 1
00:09:39.120 : en:Chapter 2
00:19:49.354 : en:Chapter 3
00:34:21.851 : en:Chapter 4
00:45:15.337 : en:Chapter 5
00:49:38.183 : en:Chapter 6
01:01:59.674 : en:Chapter 7
01:05:52.657 : en:Chapter 8
01:10:05.451 : en:Chapter 9
01:15:08.045 : en:Chapter 10
01:17:08.040 : en:Chapter 11
01:19:41.610 : en:Chapter 12
01:35:12.581 : en:Chapter 13
01:39:11.153 : en:Chapter 14
01:48:21.495 : en:Chapter 15
01:56:39.617 : en:Chapter 16
01:58:49.914 : en:Chapter 17
02:05:18.093 : en:Chapter 18
02:09:07.156 : en:Chapter 19
02:14:06.038 : en:Chapter 20

Скриншоты:
 
Не забывайте говорить Спасибо. Не уходите с раздачи!   
Торрент: Зарегистрирован [14 янв 2018, 02:06] Скачать торрент
Скачать торрент
[ Размер 255.67 КБ / Просмотров 5 ]
Статус:
Проверен
 
.torrent скачан: 0 раз
Хэш: 3a2019af9d97c000fd069653ccf0ac3490582fcf
Размер: 50.96 ГБ (54 715 967 320 байт)
Стать Автором раздачи
 
 
Раздал: 100 ГБ
Скачал: 0 байт
Ратио: Seed.
Сообщения: 57437
Зарегистрирован: 31 мар 2015, 18:04


  • Похожие торренты
    Ответы
    Просмотры
    Последнее сообщение

Вернуться в Зарубежные фильмы 1991-2000

Ресурс не предоставляет электронные версии произведений, а занимается лишь коллекционированием и каталогизацией ссылок, присылаемых и публикуемых на форуме нашими читателями. Если вы являетесь правообладателем какого-либо представленного материала и не желаете чтобы ссылка на него находилась в нашем каталоге, свяжитесь с нами и мы незамедлительно удалим её. Файлы для обмена на трекере предоставлены пользователями сайта, и администрация не несёт ответственности за их содержание. Просьба не заливать файлы, защищенные авторскими правами, а также файлы нелегального содержания!
cron