Хроники Франкенштейна / The Frankenstein Chronicles [S01-02] (2015-2017) HDTVRip 720p | LostFilm

 
 Статистика раздачи 
Размер: 16.15 ГБ   |  Зарегистрирован: 14 янв 2018, 01:23   |   .torrent скачан: 0 раз
Сидеров: 1  [ 0 байт/сек ]     Личеров: 0  [ 0 байт/сек ]  
  

Хроники Франкенштейна / The Frankenstein Chronicles [S01-02] (2015-2017) HDTVRip 720p | LostFilm

Сообщение Lester » 14 янв 2018, 01:23

Производство: Великобритания / Rainmark Films
Жанр: Фэнтези, драма, криминал, детектив

Режиссер: Бенжамин Росс, Алекс Габасси
Актеры: Шон Бин, Лоренс Фокс, Пол Кеннеди, Мартин МакКанн, Клэр Рафферти, Виктория Эмсли, Фил Мартин, Фрэнк Кэннон, Луиза Паркер, Крис Робинсон и др.

Описание:
Инспектор лондонской полиции Джон Марлотт продолжает противостоять преступному миру британской столицы, среди представителей которого нередко попадаются большие оригиналы. Второй сезон сериала начинается с того, что Джон находит способ сбежать из печально ивестной лондонской психиатрической больницы под названием Бедлам. Лорд Дэниэль Харви, который приложил свою руку к тому, чтобы упрятать Джона в «психушку», теперь из охотника сам превращается в добычу — Джон начинает свою собственную охоту. Он меняет свою личность и работу, чтобы начать расследование.



Продолжительность: ~00:47:00 серия
Качество видео: HDTVRip
Перевод: Многоголосый закадровый, профессиональный - LostFilm
Субтитры: Отсутствуют
Реклама: Присутствует заставка и логотип LostFilm

Видео: AVC/H.264, 1280x720 (16:9), ~4000 kbps
Аудио: AAC, 2 ch, ~256 kbps - русский (многоголосый закадровый)

Complete name : D:NNMClubThe.Frankenstein.Chronicles.720p.HDTVRip.LostFilmСезон 1The.Frankenstein.Chronicles.S01E06.720p.WEB.rus.LostFilm.TV.mp4
Format : MPEG-4
Format profile : Base Media
Codec ID : isom (isom)
File size : 1.40 GiB
Duration : 47 min 51 s
Overall bit rate mode : Variable
Overall bit rate : 4 187 kb/s
Season : 1
Movie name : Потерянные и обретённые
Album : Хроники Франкенштейна, Сезон 1
Album/Performer : Хроники Франкенштейна
Part : 6
Part/Position : 1
Track name/Position : 6
Performer : Хроники Франкенштейна
Genre : Sci-Fi & Fantasy
ContentType : TV Show
Recorded date : 2015
Encoded date : UTC 2016-01-03 10:29:04
Tagged date : UTC 2016-01-03 10:29:04
Writing application : Yamb 2.1.0.0 [http://yamb.unite-video.com] / LostCoder
Copyright : LostFilm.TV (c)
Cover : Yes
Comment : Лондон, 1827 год. Величайшие умы эпохи Регентства совершают научные открытия, и прогресс не стоит на месте. В то же время в закоулках города процветают грабежи, насилие и бедность. Эту неприглядную сторону жизни за время службы хорошо изучил инспектор Джо
Part_ID : 106

Video
ID : 1
Format : AVC
Format/Info : Advanced Video Codec
Format profile : High@L4.1
Format settings : 4 Ref Frames
Format settings, CABAC : No
Format settings, ReFrames : 4 frames
Codec ID : avc1
Codec ID/Info : Advanced Video Coding
Duration : 47 min 51 s
Bit rate : 4 000 kb/s
Maximum bit rate : 6 176 kb/s
Width : 1 280 pixels
Height : 720 pixels
Display aspect ratio : 16:9
Frame rate mode : Constant
Frame rate : 25.000 FPS
Color space : YUV
Chroma subsampling : 4:2:0
Bit depth : 8 bits
Scan type : Progressive
Bits/(Pixel*Frame) : 0.174
Stream size : 1.32 GiB (94%)
Title : Imported with GPAC 0.4.6-DEV (internal rev. 5)
Writing library : x264 core 112 r1834 a51816a
Encoding settings : cabac=0 / ref=3 / deblock=1:0:0 / analyse=0x3:0x113 / me=hex / subme=7 / psy=1 / psy_rd=1.00:0.00 / mixed_ref=1 / me_range=16 / chroma_me=1 / trellis=1 / 8x8dct=1 / cqm=0 / deadzone=21,11 / fast_pskip=1 / chroma_qp_offset=-2 / threads=12 / sliced_threads=0 / nr=0 / decimate=1 / interlaced=0 / constrained_intra=0 / bframes=3 / b_pyramid=2 / b_adapt=1 / b_bias=0 / direct=1 / weightb=1 / open_gop=0 / weightp=2 / keyint=250 / keyint_min=25 / scenecut=40 / intra_refresh=0 / rc_lookahead=40 / rc=abr / mbtree=1 / bitrate=4000 / ratetol=1.0 / qcomp=0.60 / qpmin=0 / qpmax=51 / qpstep=4 / vbv_maxrate=5000 / vbv_bufsize=2000 / ip_ratio=1.40 / aq=1:1.00 / nal_hrd=none
Encoded date : UTC 2015-12-16 17:47:47
Tagged date : UTC 2016-01-03 10:29:29

Audio
ID : 2
Format : AAC
Format/Info : Advanced Audio Codec
Format profile : LC
Codec ID : mp4a-40-2
Duration : 47 min 51 s
Bit rate mode : Variable
Bit rate : 249 kb/s
Maximum bit rate : 309 kb/s
Channel(s) : 2 channels
Channel positions : Front: L R
Sampling rate : 48.0 kHz
Frame rate : 46.875 FPS (1024 SPF)
Compression mode : Lossy
Stream size : 85.2 MiB (6%)
Encoded date : UTC 2016-01-03 10:29:28
Tagged date : UTC 2016-01-03 10:29:29

General
Complete name : D:NNMClubThe.Frankenstein.Chronicles.720p.HDTVRip.LostFilmСезон 2The.Frankenstein.Chronicles.S02E06.720p.WEB.rus.LostFilm.TV.mp4
Format : MPEG-4
Format profile : Base Media
Codec ID : isom (isom)
File size : 1.27 GiB
Duration : 42 min 47 s
Overall bit rate mode : Variable
Overall bit rate : 4 239 kb/s
Season : 2
Movie name : Невеста Франкенштейна
Album : Хроники Франкенштейна, Сезон 2
Album/Performer : Хроники Франкенштейна
Part : 6
Part/Position : 2
Track name/Position : 6
Performer : Хроники Франкенштейна
Genre : Sci-Fi & Fantasy
ContentType : TV Show
Recorded date : 2017
Encoded date : UTC 2018-01-08 15:40:59
Tagged date : UTC 2018-01-08 15:40:59
Writing application : LostCoder
Copyright : LostFilm.TV (c)
Cover : Yes
Comment : Лондон, 1827 год. Величайшие умы эпохи Регентства совершают научные открытия, и прогресс не стоит на месте. В то же время в закоулках города процветают грабежи, насилие и бедность. Эту неприглядную сторону жизни за время службы хорошо изучил инспектор Джо
Part_ID : 206

Video
ID : 1
Format : AVC
Format/Info : Advanced Video Codec
Format profile : High@L4.1
Format settings : CABAC / 4 Ref Frames
Format settings, CABAC : Yes
Format settings, ReFrames : 4 frames
Codec ID : avc1
Codec ID/Info : Advanced Video Coding
Duration : 42 min 47 s
Bit rate : 4 000 kb/s
Maximum bit rate : 17.2 Mb/s
Width : 1 280 pixels
Height : 720 pixels
Display aspect ratio : 16:9
Frame rate mode : Constant
Frame rate : 25.000 FPS
Color space : YUV
Chroma subsampling : 4:2:0
Bit depth : 8 bits
Scan type : Progressive
Bits/(Pixel*Frame) : 0.174
Stream size : 1.20 GiB (94%)
Title : Imported with GPAC 0.4.6-DEV (internal rev. 5)
Writing library : x264 core 112 r1834 a51816a
Encoding settings : cabac=1 / ref=4 / deblock=1:-3:-2 / analyse=0x3:0x113 / me=hex / subme=7 / psy=1 / psy_rd=1.00:0.00 / mixed_ref=1 / me_range=16 / chroma_me=1 / trellis=1 / 8x8dct=1 / cqm=0 / deadzone=21,11 / fast_pskip=1 / chroma_qp_offset=-2 / threads=6 / sliced_threads=0 / nr=0 / decimate=1 / interlaced=0 / constrained_intra=0 / bframes=5 / b_pyramid=2 / b_adapt=1 / b_bias=0 / direct=1 / weightb=1 / open_gop=0 / weightp=2 / keyint=250 / keyint_min=25 / scenecut=40 / intra_refresh=0 / rc_lookahead=40 / rc=2pass / mbtree=1 / bitrate=4000 / ratetol=1.0 / qcomp=0.60 / qpmin=0 / qpmax=51 / qpstep=4 / cplxblur=20.0 / qblur=0.5 / vbv_maxrate=10000 / vbv_bufsize=256000 / ip_ratio=1.40 / aq=1:1.00 / nal_hrd=none
Encoded date : UTC 2017-12-29 21:46:03
Tagged date : UTC 2018-01-08 15:41:54

Audio
ID : 2
Format : AAC
Format/Info : Advanced Audio Codec
Format profile : LC
Codec ID : mp4a-40-2
Duration : 42 min 46 s
Bit rate mode : Variable
Bit rate : 235 kb/s
Maximum bit rate : 312 kb/s
Channel(s) : 2 channels
Channel positions : Front: L R
Sampling rate : 48.0 kHz
Frame rate : 46.875 FPS (1024 SPF)
Compression mode : Lossy
Stream size : 71.9 MiB (6%)
Encoded date : UTC 2018-01-08 15:41:53
Tagged date : UTC 2018-01-08 15:41:54

Первый сезон
01. A World Without God / Мир без Бога
02. Seeing Things / Видения
03. All the Lost Children / Все пропавшие дети
04. The Fortune of War / Фортуна войны
05. The Frankenstein Murders / Убийства в духе Франкенштейна
06. Lost and Found / Потерянные и обретённые
Второй сезон
01. Prodigal Son / Блудный сын
02. Not John Marlott / Не Джон Марлот
03. Seeing the Dead / Видя мёртвых
04. Little Boy Lost / Потерянный мальчик
05. The Marriage of Heaven and Hell / Брак рая и ада
06. Bride of Frankenstein / Невеста Франкенштейна

 
Не забывайте говорить Спасибо. Не уходите с раздачи!   
Торрент: Зарегистрирован [14 янв 2018, 01:23] Для скачивания .torrent
необходима регистрация
Или скачать с помощью
MediaGet
Статус:
Проверен
 
.torrent скачан: 0 раз
Хэш: e3ffb991b1c73f1eeb641fabb336f2230731aceb
Размер: 16.15 ГБ (17 342 337 046 байт)
Стать Автором раздачи
 
 
Раздал: 100 ГБ
Скачал: 0 байт
Ратио: Seed.
Сообщения: 117989
Зарегистрирован: 09 апр 2015, 23:00


  • Похожие торренты
    Ответы
    Просмотры
    Последнее сообщение

Вернуться в Сериалы

Ресурс не предоставляет электронные версии произведений, а занимается лишь коллекционированием и каталогизацией ссылок, присылаемых и публикуемых на форуме нашими читателями. Если вы являетесь правообладателем какого-либо представленного материала и не желаете чтобы ссылка на него находилась в нашем каталоге, свяжитесь с нами и мы незамедлительно удалим её. Файлы для обмена на трекере предоставлены пользователями сайта, и администрация не несёт ответственности за их содержание. Просьба не заливать файлы, защищенные авторскими правами, а также файлы нелегального содержания!
cron