Зверь / Зверь войны / The Beast / The Beast of War (Кевин Рейнольдс / Kevin Reynolds) [1988, США, Боевик, HDTVRip] MVO (НТВ Плюс) + Original Eng

 
 Статистика раздачи 
Размер: 1.47 ГБ   |  Зарегистрирован: 14 янв 2018, 00:37   |   .torrent скачан: 0 раз
Сидеров: 1  [ 0 байт/сек ]     Личеров: 0  [ 0 байт/сек ]  
  

Зверь / Зверь войны / The Beast / The Beast of War (Кевин Рейнольдс / Kevin Reynolds) [1988, США, Боевик, HDTVRip] MVO (НТВ Плюс) + Original Eng

Сообщение Nakazhu » 14 янв 2018, 00:37

Зверь / Зверь войны / The Beast / The Beast of War
Страна: США
Жанр: Боевик
Год выпуска: 1988
Продолжительность: 01:46:39
Перевод: Профессиональный (многоголосый закадровый) НТВ Плюс
Субтитры: нет
Оригинальная аудиодорожка: английский
Режиссер: Кевин Рейнольдс / Kevin Reynolds
В ролях: Джордж Дзундза
Джейсон Патрик
Стивен Бауэр
Стивен Болдуин
Дон Харви
Кабир Беди
Эрик Авари
Чайм Джирафи
Шоши Марисано
Ицхак Не’еман
Описание: Во времена афганской войны советский танк попал в окружение в пустыне, он пытается пробиться к своим, но его преследуют мстительные афганские моджахеды. Один жаждущий мира русский из танка, брошенный своим жестоким командиром на верную смерть, сам присоединяется к повстанцам...
Доп. информация: Рип сделан с этого релиза http://rutracker.org/forum/viewtopic.php?t=4300264
Сэмпл: https://yadi.sk/i/aga4za9q3RRs52
Качество видео: HDTVRip
Формат видео: AVI
Видео: XviD , 720x400 (1.80:1), 23.976 fps, 1 575 Kbps
Аудио: AC3 Dolby Digital, 48000Hz, 2/0 (L,R) ch (mono), 192.00 kbps avg
Аудио 2: AC3 , 48 kHz ,192.00 kbps avg , 2/0 (L,R) ch
Код: Выделить всё
Complete name             Зверь войны - The Beast of War 1988.avi
Format                      : AVI
Format/Info                 : Audio Video Interleave
File size                   : 1.47 GiB
Duration                    : 1h 46mn
Overall bit rate            : 1 973 Kbps
Writing application         : VirtualDubMod 1.5.10.3 | www.virtualdub-fr.org || (build 2550/release)
Writing library             : VirtualDubMod build 2550/release
Video
ID                          : 0
Format                      : MPEG-4 Visual
Format profile              : Advanced Simple@L5
Format settings, BVOP       : 1
Format settings, QPel       : No
Format settings, GMC        : No warppoints
Format settings, Matrix     : Custom
Codec ID                    : XVID
Codec ID/Hint               : XviD
Duration                    : 1h 46mn
Bit rate                    : 1 575 Kbps
Width                       : 720 pixels
Height                      : 400 pixels
Display aspect ratio        : 16:9
Frame rate                  : 23.976 (23976/1000) fps
Color space                 : YUV
Chroma subsampling          : 4:2:0
Bit depth                   : 8 bits
Scan type                   : Progressive
Compression mode            : Lossy
Bits/(Pixel*Frame)          : 0.228
Stream size                 : 1.17 GiB (80%)
Writing library             : XviD 73
Audio #1
ID                          : 1
Format                      : AC-3
Format/Info                 : Audio Coding 3
Mode extension              : CM (complete main)
Format settings, Endianness : Big
Codec ID                    : 2000
Duration                    : 1h 46mn
Bit rate mode               : Constant
Bit rate                    : 192 Kbps
Channel(s)                  : 2 channels
Channel positions           : Front: L R
Sampling rate               : 48.0 KHz
Frame rate                  : 31.250 fps (1536 spf)
Compression mode            : Lossy
Stream size                 : 146 MiB (10%)
Alignment                   : Split accross interleaves
Interleave, duration        : 42 ms (1.00 video frame)
Interleave, preload duratio : 500 ms
Audio #2
ID                          : 2
Format                      : AC-3
Format/Info                 : Audio Coding 3
Mode extension              : CM (complete main)
Format settings, Endianness : Big
Codec ID                    : 2000
Duration                    : 1h 46mn
Bit rate mode               : Constant
Bit rate                    : 192 Kbps
Channel(s)                  : 2 channels
Channel positions           : Front: L R
Sampling rate               : 48.0 KHz
Frame rate                  : 31.250 fps (1536 spf)
Compression mode            : Lossy
Stream size                 : 146 MiB (10%)
Alignment                   : Split accross interleaves
Interleave, duration        : 42 ms (1.00 video frame)
Interleave, preload duratio : 500 ms
 
Не забывайте говорить Спасибо. Не уходите с раздачи!   
Торрент: Зарегистрирован [14 янв 2018, 00:37] Для скачивания .torrent
необходима регистрация
Или скачать с помощью
MediaGet
Статус:
Проверен
 
.torrent скачан: 0 раз
Хэш: 37becd059daded86c1a0f6059a705c93957532b7
Размер: 1.47 ГБ (1 578 037 248 байт)
Стать Автором раздачи
 
 
Раздал: 0 байт
Скачал: 0 байт
Ратио: Inf.
Сообщения: 487085
Зарегистрирован: 17 апр 2014, 13:57


  • Похожие торренты
    Ответы
    Просмотры
    Последнее сообщение

Вернуться в Зарубежное кино

Ресурс не предоставляет электронные версии произведений, а занимается лишь коллекционированием и каталогизацией ссылок, присылаемых и публикуемых на форуме нашими читателями. Если вы являетесь правообладателем какого-либо представленного материала и не желаете чтобы ссылка на него находилась в нашем каталоге, свяжитесь с нами и мы незамедлительно удалим её. Файлы для обмена на трекере предоставлены пользователями сайта, и администрация не несёт ответственности за их содержание. Просьба не заливать файлы, защищенные авторскими правами, а также файлы нелегального содержания!
cron