Бегущий по лезвию 2049 / Blade Runner 2049 (2017) BDRip-AVC | D | US Transfer | Лицензия

 
 Статистика раздачи 
Размер: 2.16 ГБ   |  Зарегистрирован: 14 янв 2018, 00:03   |   .torrent скачан: 0 раз
Сидеров: 1  [ 0 байт/сек ]     Личеров: 0  [ 0 байт/сек ]  
  

Бегущий по лезвию 2049 / Blade Runner 2049 (2017) BDRip-AVC | D | US Transfer | Лицензия

Сообщение graf_t » 14 янв 2018, 00:04



✦ Бегущий по лезвию 2049 / Blade Runner 2049 ✦


Информация о фильме:
❖ Год выпуска: 2017
❖ Страна: США, Великобритания, Канада, Венгрия / Sony, Columbia Pictures, Warner Bros, Alcon Entertainment
❖ Жанр: Фантастика, триллер, драма, детектив
❖ Перевод: Дублированный | [ Лицензия]
❖ Субтитры: Русские форсированные
❖ Продолжительность: 02:43:47

❖ Режиссер: Дэни Вильнёв
❖ В ролях: Райан Гослинг, Харрисон Форд, Ана де Армас, Джаред Лето, Сильвия Хукс, Дэйв Батиста, Робин Райт, Маккензи Дэвис, Карла Юри, Ленни Джеймс и другие

❖ Релиз от:
❖ Автор рипа: ProT1gR

Описание фильма:
В недалеком будущем мир населен людьми и репликантами, созданными выполнять самую тяжелую работу. Работа офицера полиции Кей — держать репликантов под контролем в условиях нарастающего напряжения… Пока он случайно не становится обладателем секретной информации, которая ставит под угрозу существование всего человечества. Желая найти ключ к разгадке, Кей решает разыскать Рика Декарда, бывшего офицера специального подразделения полиции Лос-Анджелеса, который бесследно исчез много лет назад...

Технические данные файла:
❖ Качество: BDRip-AVC (Исх. BDRemux 1080p | US Transfer)
❖ Формат: MKV
❖ Видео: 1024x424 (2.40:1), 23.976 fps, MPEG-4 AVC ~1 505 kbps ( 0.145 bit/pixel)
❖ Аудио: AC3, 48.0 KHz, 6 ch, 384 kbps

General
Unique ID : 213802202358061765114397679789177377127 (0xA0D8CE6E3F2FE8AAA10AEE3A63ED1167)
Complete name : Blade.Runner.2049.(2017).BDRip-AVC.[Kaztorrents].mkv
Format : Matroska
Format version : Version 4 / Version 2
File size : 2.16 GiB
Duration : 2 h 43 min
Overall bit rate : 1 891 kb/s
Encoded date : UTC 2018-01-13 19:59:35
Writing application : mkvmerge v11.0.0 ('Alive') 64bit
Writing library : libebml v1.3.4 + libmatroska v1.4.5

Video
ID : 1
Format : AVC
Format/Info : Advanced Video Codec
Format profile : High@L4
Format settings, CABAC : Yes
Format settings, ReFrames : 12 frames
Codec ID : V_MPEG4/ISO/AVC
Duration : 2 h 43 min
Bit rate : 1 505 kb/s
Width : 1 024 pixels
Height : 424 pixels
Display aspect ratio : 2.40:1
Frame rate mode : Constant
Frame rate : 23.976 (24000/1001) FPS
Color space : YUV
Chroma subsampling : 4:2:0
Bit depth : 8 bits
Scan type : Progressive
Bits/(Pixel*Frame) : 0.145
Stream size : 1.72 GiB (80%)
Writing library : x264 core 146 r2538 121396c
Encoding settings : cabac=1 / ref=12 / deblock=1:-3:-3 / analyse=0x3:0x113 / me=umh / subme=11 / psy=1 / psy_rd=1.00:0.00 / mixed_ref=1 / me_range=48 / chroma_me=1 / trellis=2 / 8x8dct=1 / cqm=0 / deadzone=21,11 / fast_pskip=0 / chroma_qp_offset=-2 / threads=6 / lookahead_threads=1 / sliced_threads=0 / nr=0 / decimate=0 / interlaced=0 / bluray_compat=0 / constrained_intra=0 / bframes=12 / b_pyramid=2 / b_adapt=2 / b_bias=0 / direct=3 / weightb=1 / open_gop=0 / weightp=2 / keyint=240 / keyint_min=23 / scenecut=40 / intra_refresh=0 / rc_lookahead=40 / rc=2pass / mbtree=0 / bitrate=1505 / ratetol=1.0 / qcomp=0.60 / qpmin=0 / qpmax=69 / qpstep=4 / cplxblur=20.0 / qblur=0.5 / vbv_maxrate=50000 / vbv_bufsize=62500 / nal_hrd=none / filler=0 / ip_ratio=1.40 / pb_ratio=1.30 / aq=1:1.10
Default : Yes
Forced : No

Audio
ID : 2
Format : AC-3
Format/Info : Audio Coding 3
Mode extension : CM (complete main)
Format settings, Endianness : Big
Codec ID : A_AC3
Duration : 2 h 43 min
Bit rate mode : Constant
Bit rate : 384 kb/s
Channel(s) : 6 channels
Channel positions : Front: L C R, Side: L R, LFE
Sampling rate : 48.0 kHz
Frame rate : 31.250 FPS (1536 spf)
Bit depth : 16 bits
Compression mode : Lossy
Stream size : 450 MiB (20%)
Language : Russian
Default : Yes
Forced : No

Text
ID : 3
Format : UTF-8
Codec ID : S_TEXT/UTF8
Codec ID/Info : UTF-8 Plain Text
Duration : 2 h 42 min
Bit rate : 2 b/s
Count of elements : 55
Stream size : 2.82 KiB (0%)
Language : Russian
Default : Yes
Forced : No




 
Не забывайте говорить Спасибо. Не уходите с раздачи!   
Торрент: Зарегистрирован [14 янв 2018, 00:03] Скачать торрент
Скачать торрент
[ Размер 11.76 КБ / Просмотров 14 ]
Статус:
Проверен
 
.torrent скачан: 0 раз
Хэш: c07d55668764bccafc787fb7787595860eeb09ca
Размер: 2.16 ГБ (2 322 539 182 байт)
Стать Автором раздачи
 
 
Раздал: 100 ГБ
Скачал: 0 байт
Ратио: Seed.
Сообщения: 57437
Зарегистрирован: 31 мар 2015, 18:04


  • Похожие торренты
    Ответы
    Просмотры
    Последнее сообщение

Вернуться в Зарубежное кино

Ресурс не предоставляет электронные версии произведений, а занимается лишь коллекционированием и каталогизацией ссылок, присылаемых и публикуемых на форуме нашими читателями. Если вы являетесь правообладателем какого-либо представленного материала и не желаете чтобы ссылка на него находилась в нашем каталоге, свяжитесь с нами и мы незамедлительно удалим её. Файлы для обмена на трекере предоставлены пользователями сайта, и администрация не несёт ответственности за их содержание. Просьба не заливать файлы, защищенные авторскими правами, а также файлы нелегального содержания!
cron